Наша планета / Our Planet [2019, документальный, HDR, HEVC, WEBRip 2160p] VO (АРК-ТВ) + Original + Sub (Rus, Eng)

Ответить на тему
 
Автор Сообщение

Zgurvas ®

Стаж: 8 месяца 29 дня

Сообщений: 177

Создавать темы 12-Апр-2019 14:22

[Цитировать] 

Наша планета / Our Planet
Год выпуска: 2019
Страна: США
Студия: Silverback Films
Жанр: документальный
Продолжительность: 00:50:00
Перевод: Профессиональный (одноголосый закадровый) АРК-ТВ (текст читает Игорь Тарадайкин)
Русские субтитры: есть
Режиссер: Адам Чапман / Adam Chapman
В ролях: Дэвид Аттенборо
Описание: Сериал от создателей "Планеты Земля" отправляет зрителей в беспрецедентное путешествие по самым ценным природным местам обитания в мире. Испытайте естественную красоту нашей планеты и изучите, как изменение климата влияет на все живые существа в этом амбициозном документальном фильме впечатляющего масштаба.

Тип релиза: WEBRip 2160p | Our Planet (2019) S01 2160p HDR Netflix WEBRip DD+ Atmos 5.1 x265-TrollUHD
Контейнер: MKV
Видео: HEVC, HDR, 3840x2160 (16:9), ~19.4 Mbps, 23,976 fps
Аудио 1: Русский, E-AC3, 6 ch, 48 kHz, 640 kbps
Аудио 2: Английский, E-AC3 + Atmos, 6 ch, 48 kHz, 768 kbps
Формат субтитров: softsub (SRT)
Спасибо:

Список серий

1. Одна планета | One Planet
2. Замёрзшие миры | Frozen Worlds
3. Джунгли | Jungles
4. Прибрежные моря | Coastal Seas
5. От пустынь к лугам | From Deserts to Grasslands
6. Открытые моря | The High Seas
7. Свежая вода | Fresh Water
8. Леса | Forests

MediaInfo

Полное имя                               : D:\RELEASE\Our.Planet.2019.S01.2160p.WEB-DL.HDR.HEVC.Rus.Eng.EniaHD\Our.Planet.2019.S01E01.One.Planet.2160p.WEB-DL.HDR.HEVC.Rus.Eng.EniaHD.mkv
Формат : Matroska
Версия формата : Version 4
Размер файла : 7,37 Гбайт
Продолжительность : 49 м. 49 с.
Общий поток : 21,2 Мбит/сек
Дата кодирования : UTC 2019-04-12 11:55:13
Программа кодирования : mkvmerge v32.0.0 ('Astral Progressions') 32-bit
Библиотека кодирования : libebml v1.3.7 + libmatroska v1.5.0
Обложка : Yes
Attachments : cover.jpg
Видео
Идентификатор : 1
Формат : HEVC
Формат/Информация : High Efficiency Video Coding
Коммерческое название : HDR10
Профиль формата : Main [email protected]@Main
Идентификатор кодека : V_MPEGH/ISO/HEVC
Продолжительность : 49 м. 23 с.
Битрейт : 19,9 Мбит/сек
Ширина : 3840 пикселей
Высота : 2160 пикселей
Соотношение сторон : 16:9
Режим частоты кадров : Постоянный
Частота кадров : 23,976 (24000/1001) кадра/сек
Цветовое пространство : YUV
Субдискретизация насыщенности : 4:2:0
Битовая глубина : 10 бит
Бит/(Пиксели*Кадры) : 0.100
Размер потока : 6,88 Гбайт (93%)
Библиотека кодирования : x265 3.0_Au+16-0018ca1ca42f:[Windows][MSVC 1920][64 bit] 10bit
Настройки программы : cpuid=1111039 / frame-threads=4 / numa-pools=28,0 / wpp / no-pmode / no-pme / no-psnr / no-ssim / log-level=2 / input-csp=1 / input-res=3840x2160 / interlace=0 / total-frames=0 / level-idc=0 / high-tier=1 / uhd-bd=0 / ref=5 / no-allow-non-conformance / repeat-headers / annexb / no-aud / no-hrd / info / hash=0 / no-temporal-layers / open-gop / min-keyint=23 / keyint=250 / gop-lookahead=0 / bframes=8 / b-adapt=2 / b-pyramid / bframe-bias=0 / rc-lookahead=40 / lookahead-slices=0 / scenecut=40 / radl=0 / no-splice / no-intra-refresh / ctu=64 / min-cu-size=8 / no-rect / no-amp / max-tu-size=32 / tu-inter-depth=3 / tu-intra-depth=3 / limit-tu=0 / rdoq-level=1 / dynamic-rd=0.00 / no-ssim-rd / signhide / no-tskip / nr-intra=0 / nr-inter=0 / no-constrained-intra / strong-intra-smoothing / max-merge=5 / limit-refs=0 / no-limit-modes / me=3 / subme=4 / merange=57 / temporal-mvp / weightp / weightb / no-analyze-src-pics / deblock=0:0 / no-sao / no-sao-non-deblock / rd=6 / no-early-skip / rskip / no-fast-intra / no-tskip-fast / no-cu-lossless / b-intra / no-splitrd-skip / rdpenalty=0 / psy-rd=4.00 / psy-rdoq=8.00 / no-rd-refine / no-lossless / cbqpoffs=0 / crqpoffs=0 / rc=crf / crf=16.0 / qcomp=0.60 / qpstep=4 / stats-write=0 / stats-read=0 / ipratio=1.40 / pbratio=1.30 / aq-mode=2 / aq-strength=1.00 / cutree / zone-count=0 / no-strict-cbr / qg-size=32 / no-rc-grain / qpmax=69 / qpmin=0 / no-const-vbv / sar=0 / overscan=0 / videoformat=5 / range=0 / colorprim=9 / transfer=16 / colormatrix=9 / chromaloc=0 / display-window=0 / master-display=G(13250,34500)B(7500,3000)R(34000,16000)WP(15635,16450)L(10000000,1) / max-cll=1506,210 / min-luma=0 / max-luma=1023 / log2-max-poc-lsb=8 / vui-timing-info / vui-hrd-info / slices=1 / no-opt-qp-pps / no-opt-ref-list-length-pps / no-multi-pass-opt-rps / scenecut-bias=0.05 / no-opt-cu-delta-qp / no-aq-motion / hdr / hdr-opt / no-dhdr10-opt / no-idr-recovery-sei / analysis-reuse-level=5 / scale-factor=0 / refine-intra=0 / refine-inter=0 / refine-mv=0 / refine-ctu-distortion=0 / no-limit-sao / ctu-info=0 / no-lowpass-dct / refine-analysis-type=0 / copy-pic=1 / max-ausize-factor=1.0 / no-dynamic-refine / no-single-sei / no-hevc-aq / no-svt / qp-adaptation-range=1.00
Язык : English
Default : Да
Forced : Нет
Цветовой диапазон : Limited
Основные цвета : BT.2020
Характеристики трансфера : PQ
Коэффициенты матрицы : BT.2020 non-constant
MasteringDisplay_ColorPrimaries : Display P3
MasteringDisplay_Luminance : min: 0.0001 cd/m2, max: 1000 cd/m2
MaxCLL : 1506 cd/m2
MaxFALL : 210 cd/m2
Аудио #1
Идентификатор : 2
Формат : E-AC-3
Формат/Информация : Enhanced AC-3
Коммерческое название : Dolby Digital Plus
Идентификатор кодека : A_EAC3
Продолжительность : 49 м. 49 с.
Вид битрейта : Постоянный
Битрейт : 640 Кбит/сек
Каналы : 6 каналов
Channel layout : L R C LFE Ls Rs
Частота : 48,0 КГц
Частота кадров : 31,250 кадров/сек (1536 SPF)
Метод сжатия : С потерями
Размер потока : 228 Мбайт (3%)
Заголовок : E-AC3 5.1 @ 640 kbps - VO, APK-TV Studio
Язык : Russian
ServiceKind/String : Complete Main
Default : Да
Forced : Нет
Аудио #2
Идентификатор : 3
Формат : E-AC-3 JOC
Формат/Информация : Enhanced AC-3 with Joint Object Coding
Коммерческое название : Dolby Digital Plus with Dolby Atmos
Идентификатор кодека : A_EAC3
Продолжительность : 49 м. 49 с.
Вид битрейта : Постоянный
Битрейт : 768 Кбит/сек
Каналы : 6 каналов
Channel layout : L R C LFE Ls Rs
Частота : 48,0 КГц
Частота кадров : 31,250 кадров/сек (1536 SPF)
Метод сжатия : С потерями
Размер потока : 274 Мбайт (4%)
Заголовок : E-AC3 + Atmos 5.1 @ 768 kbps - Original
Язык : English
ServiceKind/String : Complete Main
Default : Нет
Forced : Нет
Complexity index : 16
Number of dynamic objects : 15
Bed channel count : 1 канал
Bed channel configuration : LFE
Текст #1
Идентификатор : 4
Формат : UTF-8
Идентификатор кодека : S_TEXT/UTF8
Идентификатор кодека/Информация : UTF-8 Plain Text
Продолжительность : 49 м. 11 с.
Битрейт : 0 бит/сек
ElementCount : 4
Размер потока : 289 байт (0%)
Заголовок : Forced
Язык : Russian
Default : Да
Forced : Да
Текст #2
Идентификатор : 5
Формат : UTF-8
Идентификатор кодека : S_TEXT/UTF8
Идентификатор кодека/Информация : UTF-8 Plain Text
Продолжительность : 48 м. 14 с.
Битрейт : 63 бит/сек
ElementCount : 314
Размер потока : 22,3 Кбайт (0%)
Заголовок : Full
Язык : Russian
Default : Нет
Forced : Нет
Текст #3
Идентификатор : 6
Формат : UTF-8
Идентификатор кодека : S_TEXT/UTF8
Идентификатор кодека/Информация : UTF-8 Plain Text
Продолжительность : 48 м. 54 с.
Битрейт : 51 бит/сек
ElementCount : 433
Размер потока : 18,4 Кбайт (0%)
Заголовок : Full SDH
Язык : English
Default : Нет
Forced : Нет

Скриншоты




Последний раз редактировалось: Zgurvas (2019-04-12 23:24), всего редактировалось 1 раз
[Профиль]  [ЛС] 

Zgurvas ®

Стаж: 8 месяца 29 дня

Сообщений: 177

Создавать темы 12-Апр-2019 15:07 (спустя 44 минуты)

[Цитировать] 

ПОЛНЫЙ СЕЗОН + BONUS Наша планета. За кулисами - https://eniahd.com/viewtopic.php?t=552
[Профиль]  [ЛС] 
Показать сообщения:    
Ответить на тему

Текущее время: 22-Апр 02:13

Часовой пояс: UTC + 3



Вы не можете начинать темы
Вы не можете отвечать на сообщения
Вы не можете редактировать свои сообщения
Вы не можете удалять свои сообщения
Вы не можете голосовать в опросах
Вы не можете прикреплять файлы к сообщениям
Вы не можете скачивать файлы