М убийца / M - Eine Stadt sucht einen Mörder / Сезон: 1 / Серии: 1-6 из 6 (Давид Шалько) [2019, Австрия, Германия, триллер, криминал, BDRip-AVC] MVO (SDI Media) + Original

Ответить на тему
 
Автор Сообщение

Wilmots ®

Стаж: 8 месяца 29 дня

Сообщений: 101

Создавать темы 07-Мар-2019 13:36

[Цитировать] 

М убийца / M - Eine Stadt sucht einen Mörder- Год выпуска: 2019
Страна: Австрия, Германия
Жанр: триллер, криминал
Продолжительность: ~00:50:00
Перевод: Профессиональный (многоголосый закадровый) | SDI Media
Режиссёр: Давид Шалько
В ролях: Доминик Марингер, Сара Виктория Фрик, Йоханна Орсини-Розенберг, Кристиан Долезал, Мориц Бляйбтрой, Верена Альтенбергер, Florian Schillerwein, Ларс Айдингер, Юлия Штембергер, Герхард Либманн
Описание: В благополучной Вене начинают бесследно пропадать дети. Полиция не в силах найти похитителя — не помогают даже самые суровые меры и самые современные технические средства. Жёлтая пресса умело поддерживает состояние всеобщей истерии. Жители напуганы и озлоблены: страшные находки ждут их под снегом. Политический кризис готов разразиться в любую минуту — и дети продолжают пропадать. Своё расследование начинают даже главари преступного мира... Весь город ищет убийцу.

Предыдущие и альтернативные раздачи

Качество: BDRip-AVC | M.Eine.Stadt.sucht.einen.Moerder.S01.German.BDRip.x264-EXCiTED
Контейнер: MKV
Видео: AVC, 720x404 (16:9), 25 fps, ~1140 kbps
Аудио №1: AC3 2.0, 48 kHz, 192 kbps
Аудио №2: AC3 5.1, 48 kHz, 384 kbps
Реклама: отсутствует

MediaInfo

General
Unique ID : 170332977697505829957689567971131264737 (0x8024F02F9B6C12EBA18DA0F1BDB80EE1)
Complete name : G:\M.Eine.Stadt.sucht.einen.Moerder.s01.BDRip.x264-EniaHD\M.Eine.Stadt.sucht.einen.Moerder.s01e01.BDRip.x264-EniaHD.mkv
Format : Matroska
Format version : Version 4 / Version 2
File size : 572 MiB
Duration : 46 min 31 s
Overall bit rate : 1 718 kb/s
Movie name : M.Eine.Stadt.sucht.einen.Moerder.s01e01.BDRip.x264-EniaHD
Encoded date : UTC 2019-03-07 10:14:38
Writing application : mkvmerge v31.0.0 ('Dolores In A Shoestand') 64-bit
Writing library : libebml v1.3.6 + libmatroska v1.4.9
Video
ID : 1
Format : AVC
Format/Info : Advanced Video Codec
Format profile : [email protected]
Format settings : CABAC / 5 Ref Frames
Format settings, CABAC : Yes
Format settings, ReFrames : 5 frames
Codec ID : V_MPEG4/ISO/AVC
Duration : 46 min 31 s
Bit rate : 1 140 kb/s
Width : 720 pixels
Height : 404 pixels
Display aspect ratio : 16:9
Frame rate mode : Constant
Frame rate : 25.000 FPS
Color space : YUV
Chroma subsampling : 4:2:0
Bit depth : 8 bits
Scan type : Progressive
Bits/(Pixel*Frame) : 0.157
Stream size : 380 MiB (66%)
Writing library : x264 core 157 r2935 545de2f
Encoding settings : cabac=1 / ref=5 / deblock=1:-2:-2 / analyse=0x3:0x113 / me=umh / subme=8 / psy=1 / psy_rd=1.00:0.15 / mixed_ref=1 / me_range=16 / chroma_me=1 / trellis=2 / 8x8dct=1 / cqm=0 / deadzone=21,11 / fast_pskip=0 / chroma_qp_offset=-3 / threads=24 / lookahead_threads=3 / sliced_threads=0 / nr=0 / decimate=1 / interlaced=0 / bluray_compat=0 / constrained_intra=0 / bframes=3 / b_pyramid=2 / b_adapt=2 / b_bias=0 / direct=3 / weightb=1 / open_gop=0 / weightp=2 / keyint=250 / keyint_min=25 / scenecut=40 / intra_refresh=0 / rc_lookahead=50 / rc=crf / mbtree=1 / crf=19.0 / qcomp=0.60 / qpmin=10 / qpmax=69 / qpstep=4 / ip_ratio=1.40 / aq=1:1.00
Language : English
Default : Yes
Forced : No
Color range : Limited
Matrix coefficients : BT.709
Audio #1
ID : 2
Format : AC-3
Format/Info : Audio Coding 3
Codec ID : A_AC3
Duration : 46 min 30 s
Bit rate mode : Constant
Bit rate : 192 kb/s
Channel(s) : 2 channels
Channel positions : Front: L R
Sampling rate : 48.0 kHz
Frame rate : 31.250 FPS (1536 SPF)
Bit depth : 16 bits
Compression mode : Lossy
Stream size : 63.9 MiB (11%)
Title : SDI Media
Language : Russian
Service kind : Complete Main
Default : Yes
Forced : No
Audio #2
ID : 3
Format : AC-3
Format/Info : Audio Coding 3
Codec ID : A_AC3
Duration : 46 min 31 s
Bit rate mode : Constant
Bit rate : 384 kb/s
Channel(s) : 6 channels
Channel positions : Front: L C R, Side: L R, LFE
Sampling rate : 48.0 kHz
Frame rate : 31.250 FPS (1536 SPF)
Bit depth : 16 bits
Compression mode : Lossy
Stream size : 128 MiB (22%)
Language : German
Service kind : Complete Main
Default : No
Forced : No
Menu
00:00:00.000 : en:00:00:00.000
00:01:35.000 : en:00:01:35.000
00:02:02.800 : en:00:02:02.800
00:12:54.320 : en:00:12:54.320
00:21:27.200 : en:00:21:27.200
00:33:13.960 : en:00:33:13.960

Скриншоты

[Профиль]  [ЛС] 

Wilmots ®

Стаж: 8 месяца 29 дня

Сообщений: 101

Создавать темы 14-Мар-2019 13:16 (спустя 6 дня)

[Цитировать] 

+5. 6. Полный сезон.
[Профиль]  [ЛС] 
Показать сообщения:    
Ответить на тему

Текущее время: 22-Апр 02:14

Часовой пояс: UTC + 3



Вы не можете начинать темы
Вы не можете отвечать на сообщения
Вы не можете редактировать свои сообщения
Вы не можете удалять свои сообщения
Вы не можете голосовать в опросах
Вы не можете прикреплять файлы к сообщениям
Вы не можете скачивать файлы