Охотники на Троллей / Trollhunters / Сезон: 2 / Серии: 1-13 из 13 (Родриго Блаас, Грег Тирнан) [2017, США, фэнтези, комедия, приключения, WEB-DL 1080p] DUB (Пифагор) + Original + Sub (Eng + multi)

Ответить на тему
 
Автор Сообщение

Zgurvas ®

Стаж: 8 месяца 29 дня

Сообщений: 177

Создавать темы 23-Фев-2019 20:33

[Цитировать] 

Охотники на Троллей / Trollhunters- -- Страна: США
Жанр: мультфильм, фэнтези, комедия, приключения
Продолжительность серии: ~00:23:36
Год выпуска: 2017
Перевод: Профессиональный (полное дублирование) Пифагор-Режиссёр: Родриго Блаас, Грег Тирнан
Сценарий: Марк Хеймс, Том Вилер, Гильермо дель Торо
Роли озвучивали: Антон Ельчин (Джим Лейк Младший / Jim Lake Jr.), Чарльз Сэкстон (Тоби Домзальски/ Toby Domzalski), Лекси Медрано (Клер Нуньез / Claire Nuñez), Келси Грэммер (Блинки (Моргунчик) / Blinky), Фред Татаскьор (АААРРРГГХХХ!!! / AAARRRGGHH!!!), Джонатан Хайд (Мистер Стриклер / Mr. Strickler), Эми Ландекер (Барбара Лейк / Barbara Lake), Клэнси Браун (Гунмар / Gunmar), Томас Кенни (Отто Скаарбах / Otto Scaarbach), Лорен Том (Мэри Вонг / Mary Wang), Мэттью Уотерсон (Драал / Draal), Стивен Юн (Стив Палчак / Steve Palchuk), Ларейн Ньюман (Бабуля / Nana), Коул Сэнд (Илай Пейперджек / Eli Pepperjack), Джимми Вуд (НеЭнрике / NotEnrique), Виктор Рэйдер-Векслер (Вендел / Vendel), Айк Амади (Ангор Рот / Angor Rot), Томас Фрэнсис Уилсон (Тренер Лоуренс / Coach Lawrence) Рон Перлман (Булар / Bular);
Описание: В руки пятнадцатилетнему юноше попадает Магический Амулет, который даёт ему звание Охотника на Троллей, призванного защищать Троллей, живущих под землёй — под человеческим городом Аркадия. «Охотники на Троллей» - мультсериал в жанре комедии и фэнтези, вышедший в 2016 году. Он расскажет о легендарной битве, участниками которой станут Люди и Тролли.-


Предыдущие и альтернативные раздачи
--Качество: WEB-DL 1080р
Формат: MKV
Видео: MPEG4 AVC, 1920x1080, 23.976 fps, ~5000 Кбит/сек
Аудио : Русский Пифагор: E-AC3, 48 KHz, 640 Kbps
Аудио : Английский (Оригинал): E-AC3, 48 KHz, 640 Kbps
Субтитры: Английские и другие
Реклама: Отсутствует
Релиз: Zgurvas &

Список серий:

01. Бегство из Тёмных земель | Escape from the Darklands
02. Крушитель черепов | Skullcrusher
03. Отто-похититель | Grand Theft Otto
04. КанджигАаарррггхх | KanjigAAARRRGGHH!!!
05. Возвращение домой | Homecoming
06. Хисс-кисс-бум-бац | Hiss Hiss, Bang Bang
07. Герой с тысячей лиц | Hero with a Thousand Faces
08. Просто добавь воды | Just Add Water
09. Убийцы Крадачей | Creepslayerz
10. Клуб отчаянных | The Reckless Club
11. Неподходящий | Unbecoming
12. Час суда | Mistrial and Error
13. В зале короля Гум-гумов | In the Hall of the Gumm-Gumm King

MediaInfo

Полное имя                               : D:\RELEASE\Trollhunters.S02.1080p.WEB-DL.DUB.EniaHD\Trollhunters.S02E02.Skullcrusher.1080p.WEB-DL.DUB.EniaHD.mkv
Формат : Matroska
Версия формата : Version 4
Размер файла : 1,11 Гбайт
Продолжительность : 23 м. 36 с.
Режим общего битрейта : Переменный
Общий поток : 6706 Кбит/сек
Название фильма : Крушитель черепов
Дата кодирования : UTC 2019-02-23 16:36:13
Программа кодирования : mkvmerge v30.1.0 ('Forever And More') 32-bit
Библиотека кодирования : libebml v1.3.6 + libmatroska v1.4.9
Обложка : Yes
Attachments : cover.trollhunters.s02.jpg
Видео
Идентификатор : 1
Формат : AVC
Формат/Информация : Advanced Video Codec
Профиль формата : [email protected]
Настройки формата : CABAC / 3 Ref Frames
Параметр CABAC формата : Да
Параметр RefFrames формата : 3 кадра
Идентификатор кодека : V_MPEG4/ISO/AVC
Продолжительность : 23 м. 32 с.
Вид битрейта : Переменный
Битрейт : 5620 Кбит/сек
Максимальный битрейт : 8430 Кбит/сек
Ширина : 1920 пикселей
Высота : 1080 пикселей
Соотношение сторон : 16:9
Режим частоты кадров : Постоянный
Частота кадров : 23,976 (24000/1001) кадра/сек
Цветовое пространство : YUV
Субдискретизация насыщенности : 4:2:0
Битовая глубина : 8 бит
Тип развёртки : Прогрессивная
Бит/(Пиксели*Кадры) : 0.113
Размер потока : 915 Мбайт (81%)
Библиотека кодирования : x264 core 118
Настройки программы : cabac=1 / ref=3 / deblock=1:0:0 / analyse=0x1:0x111 / me=umh / subme=10 / psy=1 / psy_rd=1.00:0.00 / mixed_ref=1 / me_range=24 / chroma_me=1 / trellis=2 / 8x8dct=0 / cqm=0 / deadzone=21,11 / fast_pskip=1 / chroma_qp_offset=-2 / threads=8 / sliced_threads=0 / nr=0 / decimate=1 / interlaced=0 / bluray_compat=0 / constrained_intra=0 / bframes=2 / b_pyramid=0 / b_adapt=2 / b_bias=0 / direct=3 / weightb=1 / open_gop=0 / weightp=2 / keyint=48 / keyint_min=25 / scenecut=0 / intra_refresh=0 / rc_lookahead=0 / rc=2pass / mbtree=1 / bitrate=5620 / ratetol=1.0 / qcomp=0.50 / qpmin=6 / qpmax=51 / qpstep=4 / cplxblur=20.0 / qblur=0.5 / vbv_maxrate=8430 / vbv_bufsize=11240 / nal_hrd=vbr / ip_ratio=1.40 / aq=1:1.00
Язык : English
Default : Да
Forced : Нет
Аудио #1
Идентификатор : 2
Формат : E-AC-3
Формат/Информация : Enhanced AC-3
Коммерческое название : Dolby Digital Plus
Идентификатор кодека : A_EAC3
Продолжительность : 23 м. 36 с.
Вид битрейта : Постоянный
Битрейт : 640 Кбит/сек
Каналы : 6 каналов
Channel layout : L R C LFE Ls Rs
Частота : 48,0 КГц
Частота кадров : 31,250 кадров/сек (1536 SPF)
Метод сжатия : С потерями
Размер потока : 108 Мбайт (10%)
Заголовок : E-AC3 5.1 @ 640 kbps - DUB, Pythagor
Язык : Russian
ServiceKind/String : Complete Main
Default : Да
Forced : Нет
Аудио #2
Идентификатор : 3
Формат : E-AC-3
Формат/Информация : Enhanced AC-3
Коммерческое название : Dolby Digital Plus
Идентификатор кодека : A_EAC3
Продолжительность : 23 м. 36 с.
Вид битрейта : Постоянный
Битрейт : 640 Кбит/сек
Каналы : 6 каналов
Channel layout : L R C LFE Ls Rs
Частота : 48,0 КГц
Частота кадров : 31,250 кадров/сек (1536 SPF)
Метод сжатия : С потерями
Размер потока : 108 Мбайт (10%)
Заголовок : E-AC3 5.1 @ 640 kbps - Original
Язык : English
ServiceKind/String : Complete Main
Default : Нет
Forced : Нет
Текст #1
Идентификатор : 4
Формат : UTF-8
Идентификатор кодека : S_TEXT/UTF8
Идентификатор кодека/Информация : UTF-8 Plain Text
Продолжительность : 21 м. 57 с.
Битрейт : 94 бит/сек
ElementCount : 413
Размер потока : 15,3 Кбайт (0%)
Заголовок : English
Язык : English
Default : Нет
Forced : Нет
Текст #2
Идентификатор : 5
Формат : UTF-8
Идентификатор кодека : S_TEXT/UTF8
Идентификатор кодека/Информация : UTF-8 Plain Text
Продолжительность : 22 м. 32 с.
Битрейт : 72 бит/сек
ElementCount : 299
Размер потока : 12,0 Кбайт (0%)
Заголовок : European Spanish
Язык : Spanish
Default : Нет
Forced : Нет
Текст #3
Идентификатор : 6
Формат : UTF-8
Идентификатор кодека : S_TEXT/UTF8
Идентификатор кодека/Информация : UTF-8 Plain Text
Продолжительность : 22 м. 34 с.
Битрейт : 80 бит/сек
ElementCount : 318
Размер потока : 13,3 Кбайт (0%)
Заголовок : French
Язык : French
Default : Нет
Forced : Нет
Текст #4
Идентификатор : 7
Формат : UTF-8
Идентификатор кодека : S_TEXT/UTF8
Идентификатор кодека/Информация : UTF-8 Plain Text
Продолжительность : 22 м. 11 с.
Битрейт : 68 бит/сек
ElementCount : 357
Размер потока : 11,1 Кбайт (0%)
Заголовок : German
Язык : German
Default : Нет
Forced : Нет
Текст #5
Идентификатор : 8
Формат : UTF-8
Идентификатор кодека : S_TEXT/UTF8
Идентификатор кодека/Информация : UTF-8 Plain Text
Продолжительность : 22 м. 32 с.
Битрейт : 79 бит/сек
ElementCount : 296
Размер потока : 13,2 Кбайт (0%)
Заголовок : Italian
Язык : Italian
Default : Нет
Forced : Нет

Скриншоты



[Профиль]  [ЛС] 

Lazur7

Стаж: 1 месяц 10 дня

Сообщений: 1

Создавать темы 24-Мар-2019 08:31 (спустя 1 месяц)

[Цитировать] 

когда третий сезон будет в дубляже ориентировочно ?
[Профиль]  [ЛС] 
Показать сообщения:    
Ответить на тему

Текущее время: 22-Апр 02:12

Часовой пояс: UTC + 3



Вы не можете начинать темы
Вы не можете отвечать на сообщения
Вы не можете редактировать свои сообщения
Вы не можете удалять свои сообщения
Вы не можете голосовать в опросах
Вы не можете прикреплять файлы к сообщениям
Вы не можете скачивать файлы