Бархатная бензопила / Velvet Buzzsaw (Дэн Гилрой / Dan Gilroy) [2019, США, ужасы, триллер, комедия, криминал, HDR, HEVC, WEB-DL 1080p] DUB (Невафильм) + Original (Eng) + Sub (Rus, Eng)

Ответить на тему
 
Автор Сообщение

Zgurvas ®

Стаж: 8 месяца 26 дня

Сообщений: 194

Создавать темы 01-Фев-2019 13:28

[Цитировать] 

Бархатная бензопила / Velvet Buzzsaw- Год выпуска: 2019
Производство: США
Жанр: ужасы, триллер, комедия, криминал
Продолжительность: 01:52:30
Перевод: Профессиональный (полное дублирование) | Невафильм
Субтитры: русские (форсированные, полные), английские (полные, SDH) и другие
Оригинальная аудиодорожка: английская
Режиссер: Дэн Гилрой / Dan Gilroy
В ролях: Джейк Джилленхол, Рене Руссо, Тони Коллетт, Зави Эштон, Том Старридж, Наталия Дайер, Давид Диггс, Билли Магнуссен, Джон Малкович, Зэйв Эштон, Питер Гадиот
Описание: Мир современного искусства населяют самые разные персонажи: ценители, знатоки, художники, воры, обманщики. Все они считают, что знают и любят настоящее искусство. Однажды они сталкиваются с чем-то необычным — потрясающими картинками пожилого художника-затворника. Он словно вложил в свои работы тайный смысл. Герои с жадностью кидаются на полотна, но быстро понимают: за краской и фигурами скрывается нечто зловещее.- -Тип релиза: WEB-DL 1080p | Velvet.Buzzsaw.2019.1080p.NF.WEB-DL.DDP.Atmos.5.1.HDR.HEVC-MZABI
Контейнер: MKV
Видео: HDR, HEVC, 1920x1080 (16:9), 24.000 fps, ~5500 kbps avg, 0.110 bit/pixel
Аудио №1: E-AC3 5.1, 48 kHz, 640 kbps
Аудио №2: E-AC3+Atmos 5.1, 48 kHz, 448 kbps
Формат субтитров: softsub (SRT)
Спасибо:

MediaInfo

Полное имя                               : D:\Velvet.Buzzsaw.2019.1080p.WEB-DL.HDR.HEVC.DUB.EniaHD.mkv
Формат : Matroska
Версия формата : Version 4
Размер файла : 5,15 Гбайт
Продолжительность : 1 ч. 52 м.
Общий поток : 6550 Кбит/сек
Название фильма : Бархатная бензопила (2019)
Дата кодирования : UTC 2019-02-01 09:47:02
Программа кодирования : mkvmerge v30.1.0 ('Forever And More') 32-bit
Библиотека кодирования : libebml v1.3.6 + libmatroska v1.4.9
Attachments : poster.velvet.buzzsaw.png
Видео
Идентификатор : 1
Формат : HEVC
Формат/Информация : High Efficiency Video Coding
Коммерческое название : HDR10
Профиль формата : Main [email protected]@Main
Идентификатор кодека : V_MPEGH/ISO/HEVC
Продолжительность : 1 ч. 51 м.
Битрейт : 5477 Кбит/сек
Ширина : 1920 пикселей
Высота : 1080 пикселей
Соотношение сторон : 16:9
Режим частоты кадров : Постоянный
Частота кадров : 24,000 кадра/сек
Цветовое пространство : YUV
Субдискретизация насыщенности : 4:2:0 (Type 2)
Битовая глубина : 10 бит
Бит/(Пиксели*Кадры) : 0.110
Размер потока : 4,28 Гбайт (83%)
Заголовок : Velvet.Buzzsaw.2019.1080p.WEB-DL.HDR.HEVC.DUB.EniaHD
Язык : English
Default : Да
Forced : Нет
Цветовой диапазон : Limited
Основные цвета : BT.2020
Характеристики трансфера : PQ
Коэффициенты матрицы : BT.2020 non-constant
MasteringDisplay_ColorPrimaries : Display P3
MasteringDisplay_Luminance : min: 0.0050 cd/m2, max: 4000 cd/m2
MaxCLL : 4375 cd/m2
MaxFALL : 1129 cd/m2
Аудио #1
Идентификатор : 2
Формат : E-AC-3
Формат/Информация : Enhanced AC-3
Коммерческое название : Dolby Digital Plus
Идентификатор кодека : A_EAC3
Продолжительность : 1 ч. 52 м.
Вид битрейта : Постоянный
Битрейт : 640 Кбит/сек
Каналы : 6 каналов
Channel layout : L R C LFE Ls Rs
Частота : 48,0 КГц
Частота кадров : 31,250 кадров/сек (1536 SPF)
Метод сжатия : С потерями
Размер потока : 515 Мбайт (10%)
Заголовок : E-AC3 5.1 @ 640 kbps - DUB, Невафильм
Язык : Russian
ServiceKind/String : Complete Main
Default : Да
Forced : Нет
Аудио #2
Идентификатор : 3
Формат : E-AC-3 JOC
Формат/Информация : Enhanced AC-3 with Joint Object Coding
Коммерческое название : Dolby Digital Plus with Dolby Atmos
Идентификатор кодека : A_EAC3
Продолжительность : 1 ч. 52 м.
Вид битрейта : Постоянный
Битрейт : 448 Кбит/сек
Каналы : 6 каналов
Channel layout : L R C LFE Ls Rs
Частота : 48,0 КГц
Частота кадров : 31,250 кадров/сек (1536 SPF)
Метод сжатия : С потерями
Размер потока : 361 Мбайт (7%)
Заголовок : E-AC3 + Atmos 5.1 @ 448 kbps - Original
Язык : English
ServiceKind/String : Complete Main
Default : Нет
Forced : Нет
Complexity index : 16
Number of dynamic objects : 15
Bed channel count : 1 канал
Bed channel configuration : LFE
Текст #1
Идентификатор : 4
Формат : UTF-8
Идентификатор кодека : S_TEXT/UTF8
Идентификатор кодека/Информация : UTF-8 Plain Text
Продолжительность : 1 ч. 46 м.
Битрейт : 1 бит/сек
ElementCount : 36
Размер потока : 1,53 Кбайт (0%)
Заголовок : Forced
Язык : Russian
Default : Да
Forced : Да
Текст #2
Идентификатор : 5
Формат : UTF-8
Идентификатор кодека : S_TEXT/UTF8
Идентификатор кодека/Информация : UTF-8 Plain Text
Продолжительность : 1 ч. 51 м.
Битрейт : 90 бит/сек
ElementCount : 1354
Размер потока : 74,0 Кбайт (0%)
Заголовок : Full
Язык : Russian
Default : Нет
Forced : Нет
Текст #3
Идентификатор : 6
Формат : UTF-8
Идентификатор кодека : S_TEXT/UTF8
Идентификатор кодека/Информация : UTF-8 Plain Text
Продолжительность : 1 ч. 46 м.
Битрейт : 64 бит/сек
ElementCount : 1518
Размер потока : 50,4 Кбайт (0%)
Заголовок : Full SDH
Язык : English
Default : Нет
Forced : Нет
Текст #4
Идентификатор : 7
Формат : UTF-8
Идентификатор кодека : S_TEXT/UTF8
Идентификатор кодека/Информация : UTF-8 Plain Text
Продолжительность : 1 ч. 51 м.
Битрейт : 47 бит/сек
ElementCount : 1345
Размер потока : 39,2 Кбайт (0%)
Заголовок : Castilian
Язык : Spanish
Default : Нет
Forced : Нет
Текст #5
Идентификатор : 8
Формат : UTF-8
Идентификатор кодека : S_TEXT/UTF8
Идентификатор кодека/Информация : UTF-8 Plain Text
Продолжительность : 1 ч. 51 м.
Битрейт : 56 бит/сек
ElementCount : 1369
Размер потока : 45,8 Кбайт (0%)
Заголовок : Spanish
Язык : Spanish
Default : Нет
Forced : Нет
Текст #6
Идентификатор : 9
Формат : UTF-8
Идентификатор кодека : S_TEXT/UTF8
Идентификатор кодека/Информация : UTF-8 Plain Text
Продолжительность : 1 ч. 51 м.
Битрейт : 53 бит/сек
ElementCount : 1329
Размер потока : 43,8 Кбайт (0%)
Заголовок : French
Язык : French
Default : Нет
Forced : Нет
Текст #7
Идентификатор : 10
Формат : UTF-8
Идентификатор кодека : S_TEXT/UTF8
Идентификатор кодека/Информация : UTF-8 Plain Text
Продолжительность : 1 ч. 51 м.
Битрейт : 52 бит/сек
ElementCount : 1243
Размер потока : 43,3 Кбайт (0%)
Заголовок : German
Язык : German
Default : Нет
Forced : Нет
Текст #8
Идентификатор : 11
Формат : UTF-8
Идентификатор кодека : S_TEXT/UTF8
Идентификатор кодека/Информация : UTF-8 Plain Text
Продолжительность : 1 ч. 51 м.
Битрейт : 52 бит/сек
ElementCount : 1313
Размер потока : 42,5 Кбайт (0%)
Заголовок : Italian
Язык : Italian
Default : Нет
Forced : Нет
Текст #9
Идентификатор : 12
Формат : UTF-8
Идентификатор кодека : S_TEXT/UTF8
Идентификатор кодека/Информация : UTF-8 Plain Text
Продолжительность : 1 ч. 51 м.
Битрейт : 53 бит/сек
ElementCount : 1352
Размер потока : 43,6 Кбайт (0%)
Заголовок : Portuguese
Язык : Portuguese
Default : Нет
Forced : Нет
Текст #10
Идентификатор : 13
Формат : UTF-8
Идентификатор кодека : S_TEXT/UTF8
Идентификатор кодека/Информация : UTF-8 Plain Text
Продолжительность : 1 ч. 51 м.
Битрейт : 51 бит/сек
ElementCount : 1266
Размер потока : 42,3 Кбайт (0%)
Заголовок : Brazilian Portuguese
Язык : Portuguese
Default : Нет
Forced : Нет
Текст #11
Идентификатор : 14
Формат : UTF-8
Идентификатор кодека : S_TEXT/UTF8
Идентификатор кодека/Информация : UTF-8 Plain Text
Продолжительность : 1 ч. 51 м.
Битрейт : 49 бит/сек
ElementCount : 1263
Размер потока : 40,8 Кбайт (0%)
Заголовок : Polish
Язык : Polish
Default : Нет
Forced : Нет
Текст #12
Идентификатор : 15
Формат : UTF-8
Идентификатор кодека : S_TEXT/UTF8
Идентификатор кодека/Информация : UTF-8 Plain Text
Продолжительность : 1 ч. 51 м.
Битрейт : 52 бит/сек
ElementCount : 1342
Размер потока : 43,1 Кбайт (0%)
Заголовок : Turkish
Язык : Turkish
Default : Нет
Forced : Нет
Текст #13
Идентификатор : 16
Формат : UTF-8
Идентификатор кодека : S_TEXT/UTF8
Идентификатор кодека/Информация : UTF-8 Plain Text
Продолжительность : 1 ч. 51 м.
Битрейт : 52 бит/сек
ElementCount : 1226
Размер потока : 43,0 Кбайт (0%)
Заголовок : Swedish
Язык : Swedish
Default : Нет
Forced : Нет
Текст #14
Идентификатор : 17
Формат : UTF-8
Идентификатор кодека : S_TEXT/UTF8
Идентификатор кодека/Информация : UTF-8 Plain Text
Продолжительность : 1 ч. 51 м.
Битрейт : 53 бит/сек
ElementCount : 1354
Размер потока : 43,5 Кбайт (0%)
Заголовок : Danish
Язык : Danish
Default : Нет
Forced : Нет
Текст #15
Идентификатор : 18
Формат : UTF-8
Идентификатор кодека : S_TEXT/UTF8
Идентификатор кодека/Информация : UTF-8 Plain Text
Продолжительность : 1 ч. 51 м.
Битрейт : 51 бит/сек
ElementCount : 1120
Размер потока : 42,1 Кбайт (0%)
Заголовок : Finnish
Язык : Finnish
Default : Нет
Forced : Нет
Текст #16
Идентификатор : 19
Формат : UTF-8
Идентификатор кодека : S_TEXT/UTF8
Идентификатор кодека/Информация : UTF-8 Plain Text
Продолжительность : 1 ч. 51 м.
Битрейт : 49 бит/сек
ElementCount : 1245
Размер потока : 40,1 Кбайт (0%)
Заголовок : Dutch
Язык : Dutch
Default : Нет
Forced : Нет
Текст #17
Идентификатор : 20
Формат : UTF-8
Идентификатор кодека : S_TEXT/UTF8
Идентификатор кодека/Информация : UTF-8 Plain Text
Продолжительность : 1 ч. 51 м.
Битрейт : 50 бит/сек
ElementCount : 1351
Размер потока : 41,1 Кбайт (0%)
Заголовок : Norwegian
Язык : Norwegian
Default : Нет
Forced : Нет
Текст #18
Идентификатор : 21
Формат : UTF-8
Идентификатор кодека : S_TEXT/UTF8
Идентификатор кодека/Информация : UTF-8 Plain Text
Продолжительность : 1 ч. 51 м.
Битрейт : 93 бит/сек
ElementCount : 1374
Размер потока : 76,4 Кбайт (0%)
Заголовок : Greek
Язык : Greek
Default : Нет
Forced : Нет
Текст #19
Идентификатор : 22
Формат : UTF-8
Идентификатор кодека : S_TEXT/UTF8
Идентификатор кодека/Информация : UTF-8 Plain Text
Продолжительность : 1 ч. 51 м.
Битрейт : 82 бит/сек
ElementCount : 1334
Размер потока : 67,5 Кбайт (0%)
Заголовок : Hebrew
Язык : Hebrew
Default : Нет
Forced : Нет
Текст #20
Идентификатор : 23
Формат : UTF-8
Идентификатор кодека : S_TEXT/UTF8
Идентификатор кодека/Информация : UTF-8 Plain Text
Продолжительность : 1 ч. 51 м.
Битрейт : 93 бит/сек
ElementCount : 1359
Размер потока : 76,7 Кбайт (0%)
Заголовок : Arabic
Язык : Arabic
Default : Нет
Forced : Нет
Текст #21
Идентификатор : 24
Формат : UTF-8
Идентификатор кодека : S_TEXT/UTF8
Идентификатор кодека/Информация : UTF-8 Plain Text
Продолжительность : 1 ч. 51 м.
Битрейт : 52 бит/сек
ElementCount : 1345
Размер потока : 42,6 Кбайт (0%)
Заголовок : Romanian
Язык : Romanian
Default : Нет
Forced : Нет
Текст #22
Идентификатор : 25
Формат : UTF-8
Идентификатор кодека : S_TEXT/UTF8
Идентификатор кодека/Информация : UTF-8 Plain Text
Продолжительность : 1 ч. 51 м.
Битрейт : 54 бит/сек
ElementCount : 1293
Размер потока : 44,3 Кбайт (0%)
Заголовок : Indonesian
Язык : Indonesian
Default : Нет
Forced : Нет
Текст #23
Идентификатор : 26
Формат : UTF-8
Идентификатор кодека : S_TEXT/UTF8
Идентификатор кодека/Информация : UTF-8 Plain Text
Продолжительность : 1 ч. 51 м.
Битрейт : 126 бит/сек
ElementCount : 1377
Размер потока : 104 Кбайт (0%)
Заголовок : Thai
Язык : Thai
Default : Нет
Forced : Нет
Текст #24
Идентификатор : 27
Формат : UTF-8
Идентификатор кодека : S_TEXT/UTF8
Идентификатор кодека/Информация : UTF-8 Plain Text
Продолжительность : 1 ч. 51 м.
Битрейт : 62 бит/сек
ElementCount : 1395
Размер потока : 51,2 Кбайт (0%)
Заголовок : Korean
Язык : Korean
Default : Нет
Forced : Нет
Текст #25
Идентификатор : 28
Формат : UTF-8
Идентификатор кодека : S_TEXT/UTF8
Идентификатор кодека/Информация : UTF-8 Plain Text
Продолжительность : 1 ч. 51 м.
Битрейт : 51 бит/сек
ElementCount : 1386
Размер потока : 42,3 Кбайт (0%)
Заголовок : Chinese (Simplified)
Язык : Chinese
Default : Нет
Forced : Нет
Текст #26
Идентификатор : 29
Формат : UTF-8
Идентификатор кодека : S_TEXT/UTF8
Идентификатор кодека/Информация : UTF-8 Plain Text
Продолжительность : 1 ч. 51 м.
Битрейт : 46 бит/сек
ElementCount : 1379
Размер потока : 37,7 Кбайт (0%)
Заголовок : Chinese (Traditional)
Язык : Chinese
Default : Нет
Forced : Нет
Текст #27
Идентификатор : 30
Формат : UTF-8
Идентификатор кодека : S_TEXT/UTF8
Идентификатор кодека/Информация : UTF-8 Plain Text
Продолжительность : 1 ч. 51 м.
Битрейт : 46 бит/сек
ElementCount : 1324
Размер потока : 37,8 Кбайт (0%)
Заголовок : Japanese
Язык : Japanese
Default : Нет
Forced : Нет

Скриншоты



[Профиль]  [ЛС] 
Показать сообщения:    
Ответить на тему

Текущее время: 19-Апр 00:23

Часовой пояс: UTC + 3



Вы не можете начинать темы
Вы не можете отвечать на сообщения
Вы не можете редактировать свои сообщения
Вы не можете удалять свои сообщения
Вы не можете голосовать в опросах
Вы не можете прикреплять файлы к сообщениям
Вы не можете скачивать файлы