Звёздный путь: Дискавери / Star Trek: Discovery / Сезон: 2 / Серии: 1-14 из 14 (Акива Голдсман, Адам Кэйн) [2019, США, Фантастика, боевик, драма, приключения, HDR, HEVC, WEB-DL 1080p] MVO (SDI Media) + Original + Sub (Rus, Eng + multi)

Ответить на тему
 
Автор Сообщение

Zgurvas ®

Стаж: 8 месяца 29 дня

Сообщений: 177

Создавать темы 19-Янв-2019 01:00

[Цитировать] 

Звёздный путь: Дискавери | Star Trek: Discovery- Год выпуска: 2019
Страна: США
Жанр: Фантастика, боевик, драма, приключения
Продолжительность: ~ 01:00:00-Перевод: Профессиональный (многоголосый закадровый) | SDI Media-Режиссёр: Акива Голдсман, Адам Кэйн-В ролях: Сонекуа Мартин-Грин, Даг Джонс, Шазад Латиф, Энтони Рэпп, Mary Wiseman, Джейсон Айзекс, Кеннет Митчелл, Эмили Куттс, Сара Митич, Clare McConnel-Описание: За 10 лет до начала истории, описанной в оригинальном сериале «Звёздный путь», экипаж корабля USS Discovery NCC-1031 отправляется в путешествие, чтобы изучать глубокий космос и открыть новые миры и цивилизации.- -
Ссылка на предыдущие и альтернативные раздачи
-Качество: WEB-DL 1080p (HDR)
Контейнер: MKV
Видео: HEVC, 1920x1080 (16:9), 23.976 кадра/сек, ~ 5648 Кбит/сек
Аудио Rus: E-AC3, 48 kHz, 3/2 (L,C,R,l,r) + LFE ch, 640 Кбит/сек | SDI Media
Аудио Eng: E-AC3, 48 kHz, 3/2 (L,C,R,l,r) + LFE ch, 640 Кбит/сек
Субтитры: Русские (Forced | Full), английские (Forced | Full | SDH) и другие языки
Реклама: Отсутствует
Релиз: Zgurvas &

Список серий

01. Брат | Brother
02. Новый Эдем | New Eden
03. Точка света | Point of Light
04. Обол для Харона | An Obol for Charon
05. Святые несовершенства | Saints of Imperfection
06. Звуки грома | The Sounds of Thunder
07. Свет и тени | Light and Shadows
08. Если работает память | If Memory Serves
09. Проект Дедал | Project Daedalus
10. Красный ангел | The Red Angel
11. Вечная Бесконечность | Perpetual Infinity
12. Через Долину теней | Through the Valley of Shadows
13. Такая сладкая печаль | Such Sweet Sorrow
14. Такая сладкая печаль, Часть 2 | Such Sweet Sorrow, Part 2

MediaInfo

Полное имя                               : D:\Star.Trek.Discovery.S02.1080p.WEB-DL.HDR.HEVC.Rus.Eng.EniaHD\Star.Trek.Discovery.S02E01.Brother.1080p.WEB-DL.HDR.HEVC.Rus.Eng.EniaHD.mkv
Формат : Matroska
Версия формата : Version 4
Размер файла : 2,93 Гбайт
Продолжительность : 1 ч. 0 м.
Общий поток : 6890 Кбит/сек
Название фильма : Брат
Дата кодирования : UTC 2019-01-18 21:20:11
Программа кодирования : mkvmerge v30.1.0 ('Forever And More') 32-bit
Библиотека кодирования : libebml v1.3.6 + libmatroska v1.4.9
Обложка : Yes
Attachments : cover.star.trek.discovery.jpg
Видео
Идентификатор : 1
Формат : HEVC
Формат/Информация : High Efficiency Video Coding
Коммерческое название : HDR10
Профиль формата : Main [email protected]@Main
Идентификатор кодека : V_MPEGH/ISO/HEVC
Продолжительность : 1 ч. 0 м.
Битрейт : 5648 Кбит/сек
Ширина : 1920 пикселей
Высота : 800 пикселей
Высота оригинала : 1080 пикселей
Соотношение сторон : 16:9
Режим частоты кадров : Постоянный
Частота кадров : 23,976 (24000/1001) кадра/сек
Цветовое пространство : YUV
Субдискретизация насыщенности : 4:2:0 (Type 2)
Битовая глубина : 10 бит
Бит/(Пиксели*Кадры) : 0.153
Размер потока : 2,38 Гбайт (81%)
Заголовок : Star.Trek.Discovery.S02E01.Brother.1080p.WEB-DL.HDR.HEVC.Rus.Eng.EniaHD
Язык : English
Default : Да
Forced : Нет
Цветовой диапазон : Limited
Основные цвета : BT.2020
Характеристики трансфера : PQ
Коэффициенты матрицы : BT.2020 non-constant
MasteringDisplay_ColorPrimaries : Display P3
MasteringDisplay_Luminance : min: 0.0020 cd/m2, max: 1000 cd/m2
MaxCLL : 808 cd/m2
MaxFALL : 296 cd/m2
Аудио #1
Идентификатор : 2
Формат : E-AC-3
Формат/Информация : Enhanced AC-3
Коммерческое название : Dolby Digital Plus
Идентификатор кодека : A_EAC3
Продолжительность : 1 ч. 0 м.
Вид битрейта : Постоянный
Битрейт : 640 Кбит/сек
Каналы : 6 каналов
Channel layout : L R C LFE Ls Rs
Частота : 48,0 КГц
Частота кадров : 31,250 кадров/сек (1536 SPF)
Метод сжатия : С потерями
Размер потока : 278 Мбайт (9%)
Заголовок : E-AC3 5.1 @ 640 kbps - MVO, SDI Media
Язык : Russian
ServiceKind/String : Complete Main
Default : Да
Forced : Нет
Аудио #2
Идентификатор : 3
Формат : E-AC-3
Формат/Информация : Enhanced AC-3
Коммерческое название : Dolby Digital Plus
Идентификатор кодека : A_EAC3
Продолжительность : 1 ч. 0 м.
Вид битрейта : Постоянный
Битрейт : 640 Кбит/сек
Каналы : 6 каналов
Channel layout : L R C LFE Ls Rs
Частота : 48,0 КГц
Частота кадров : 31,250 кадров/сек (1536 SPF)
Метод сжатия : С потерями
Размер потока : 278 Мбайт (9%)
Заголовок : E-AC3 5.1 @ 640 kbps - Original
Язык : English
ServiceKind/String : Complete Main
Default : Нет
Forced : Нет
Текст #1
Идентификатор : 4
Формат : UTF-8
Идентификатор кодека : S_TEXT/UTF8
Идентификатор кодека/Информация : UTF-8 Plain Text
Продолжительность : 59 м. 50 с.
Битрейт : 1 бит/сек
ElementCount : 14
Размер потока : 560 байт (0%)
Заголовок : Forced
Язык : Russian
Default : Да
Forced : Да
Текст #2
Идентификатор : 5
Формат : UTF-8
Идентификатор кодека : S_TEXT/UTF8
Идентификатор кодека/Информация : UTF-8 Plain Text
Продолжительность : 59 м. 4 с.
Битрейт : 112 бит/сек
ElementCount : 791
Размер потока : 48,7 Кбайт (0%)
Заголовок : Full
Язык : Russian
Default : Нет
Forced : Нет
Текст #3
Идентификатор : 6
Формат : UTF-8
Идентификатор кодека : S_TEXT/UTF8
Идентификатор кодека/Информация : UTF-8 Plain Text
Продолжительность : 1 с. 126 мс.
Битрейт : 35 бит/сек
ElementCount : 1
Размер потока : 5,00 байт (0%)
Заголовок : Forced
Язык : English
Default : Нет
Forced : Нет
Текст #4
Идентификатор : 7
Формат : UTF-8
Идентификатор кодека : S_TEXT/UTF8
Идентификатор кодека/Информация : UTF-8 Plain Text
Продолжительность : 58 м. 58 с.
Битрейт : 68 бит/сек
ElementCount : 790
Размер потока : 29,5 Кбайт (0%)
Заголовок : Full
Язык : English
Default : Нет
Forced : Нет
Текст #5
Идентификатор : 8
Формат : UTF-8
Идентификатор кодека : S_TEXT/UTF8
Идентификатор кодека/Информация : UTF-8 Plain Text
Продолжительность : 58 м. 58 с.
Битрейт : 71 бит/сек
ElementCount : 834
Размер потока : 30,9 Кбайт (0%)
Заголовок : Full SDH
Язык : English
Default : Нет
Forced : Нет
Текст #6
Идентификатор : 9
Формат : UTF-8
Идентификатор кодека : S_TEXT/UTF8
Идентификатор кодека/Информация : UTF-8 Plain Text
Продолжительность : 59 м. 4 с.
Битрейт : 118 бит/сек
ElementCount : 791
Размер потока : 51,3 Кбайт (0%)
Заголовок : Arabic
Язык : Arabic
Default : Нет
Forced : Нет
Текст #7
Идентификатор : 10
Формат : UTF-8
Идентификатор кодека : S_TEXT/UTF8
Идентификатор кодека/Информация : UTF-8 Plain Text
Продолжительность : 59 м. 4 с.
Битрейт : 63 бит/сек
ElementCount : 790
Размер потока : 27,4 Кбайт (0%)
Заголовок : Chinese (Simplified)
Язык : Chinese
Default : Нет
Forced : Нет
Текст #8
Идентификатор : 11
Формат : UTF-8
Идентификатор кодека : S_TEXT/UTF8
Идентификатор кодека/Информация : UTF-8 Plain Text
Продолжительность : 59 м. 4 с.
Битрейт : 68 бит/сек
ElementCount : 789
Размер потока : 29,5 Кбайт (0%)
Заголовок : Chinese (Traditional)
Язык : Chinese
Default : Нет
Forced : Нет
Текст #9
Идентификатор : 12
Формат : UTF-8
Идентификатор кодека : S_TEXT/UTF8
Идентификатор кодека/Информация : UTF-8 Plain Text
Продолжительность : 59 м. 4 с.
Битрейт : 54 бит/сек
ElementCount : 792
Размер потока : 23,7 Кбайт (0%)
Заголовок : Danish
Язык : Danish
Default : Нет
Forced : Нет
Текст #10
Идентификатор : 13
Формат : UTF-8
Идентификатор кодека : S_TEXT/UTF8
Идентификатор кодека/Информация : UTF-8 Plain Text
Продолжительность : 59 м. 4 с.
Битрейт : 56 бит/сек
ElementCount : 704
Размер потока : 24,5 Кбайт (0%)
Заголовок : Dutch
Язык : Dutch
Default : Нет
Forced : Нет
Текст #11
Идентификатор : 14
Формат : UTF-8
Идентификатор кодека : S_TEXT/UTF8
Идентификатор кодека/Информация : UTF-8 Plain Text
Продолжительность : 59 м. 4 с.
Битрейт : 60 бит/сек
ElementCount : 684
Размер потока : 26,3 Кбайт (0%)
Заголовок : Finnish
Язык : Finnish
Default : Нет
Forced : Нет
Текст #12
Идентификатор : 15
Формат : UTF-8
Идентификатор кодека : S_TEXT/UTF8
Идентификатор кодека/Информация : UTF-8 Plain Text
Продолжительность : 59 м. 4 с.
Битрейт : 59 бит/сек
ElementCount : 794
Размер потока : 25,6 Кбайт (0%)
Заголовок : French
Язык : French
Default : Нет
Forced : Нет
Текст #13
Идентификатор : 16
Формат : UTF-8
Идентификатор кодека : S_TEXT/UTF8
Идентификатор кодека/Информация : UTF-8 Plain Text
Продолжительность : 59 м. 4 с.
Битрейт : 60 бит/сек
ElementCount : 786
Размер потока : 26,3 Кбайт (0%)
Заголовок : German
Язык : German
Default : Нет
Forced : Нет
Текст #14
Идентификатор : 17
Формат : UTF-8
Идентификатор кодека : S_TEXT/UTF8
Идентификатор кодека/Информация : UTF-8 Plain Text
Продолжительность : 59 м. 4 с.
Битрейт : 106 бит/сек
ElementCount : 783
Размер потока : 46,1 Кбайт (0%)
Заголовок : Hebrew
Язык : Hebrew
Default : Нет
Forced : Нет
Текст #15
Идентификатор : 18
Формат : UTF-8
Идентификатор кодека : S_TEXT/UTF8
Идентификатор кодека/Информация : UTF-8 Plain Text
Продолжительность : 59 м. 4 с.
Битрейт : 61 бит/сек
ElementCount : 789
Размер потока : 26,6 Кбайт (0%)
Заголовок : Indonesian
Язык : Indonesian
Default : Нет
Forced : Нет
Текст #16
Идентификатор : 19
Формат : UTF-8
Идентификатор кодека : S_TEXT/UTF8
Идентификатор кодека/Информация : UTF-8 Plain Text
Продолжительность : 59 м. 4 с.
Битрейт : 64 бит/сек
ElementCount : 772
Размер потока : 27,9 Кбайт (0%)
Заголовок : Italian
Язык : Italian
Default : Нет
Forced : Нет
Текст #17
Идентификатор : 20
Формат : UTF-8
Идентификатор кодека : S_TEXT/UTF8
Идентификатор кодека/Информация : UTF-8 Plain Text
Продолжительность : 1 ч. 0 м.
Битрейт : 56 бит/сек
ElementCount : 730
Размер потока : 25,0 Кбайт (0%)
Заголовок : Japanese
Язык : Japanese
Default : Нет
Forced : Нет
Текст #18
Идентификатор : 21
Формат : UTF-8
Идентификатор кодека : S_TEXT/UTF8
Идентификатор кодека/Информация : UTF-8 Plain Text
Продолжительность : 59 м. 4 с.
Битрейт : 86 бит/сек
ElementCount : 790
Размер потока : 37,4 Кбайт (0%)
Заголовок : Korean
Язык : Korean
Default : Нет
Forced : Нет
Текст #19
Идентификатор : 22
Формат : UTF-8
Идентификатор кодека : S_TEXT/UTF8
Идентификатор кодека/Информация : UTF-8 Plain Text
Продолжительность : 59 м. 4 с.
Битрейт : 58 бит/сек
ElementCount : 600
Размер потока : 25,1 Кбайт (0%)
Заголовок : Norwegian
Язык : Norwegian
Default : Нет
Forced : Нет
Текст #20
Идентификатор : 23
Формат : UTF-8
Идентификатор кодека : S_TEXT/UTF8
Идентификатор кодека/Информация : UTF-8 Plain Text
Продолжительность : 59 м. 4 с.
Битрейт : 61 бит/сек
ElementCount : 789
Размер потока : 26,7 Кбайт (0%)
Заголовок : Polish
Язык : Polish
Default : Нет
Forced : Нет
Текст #21
Идентификатор : 24
Формат : UTF-8
Идентификатор кодека : S_TEXT/UTF8
Идентификатор кодека/Информация : UTF-8 Plain Text
Продолжительность : 59 м. 4 с.
Битрейт : 61 бит/сек
ElementCount : 788
Размер потока : 26,8 Кбайт (0%)
Заголовок : Portuguese
Язык : Portuguese
Default : Нет
Forced : Нет
Текст #22
Идентификатор : 25
Формат : UTF-8
Идентификатор кодека : S_TEXT/UTF8
Идентификатор кодека/Информация : UTF-8 Plain Text
Продолжительность : 59 м. 4 с.
Битрейт : 63 бит/сек
ElementCount : 785
Размер потока : 27,7 Кбайт (0%)
Заголовок : Portuguese (Brazilian)
Язык : Portuguese
Default : Нет
Forced : Нет
Текст #23
Идентификатор : 26
Формат : UTF-8
Идентификатор кодека : S_TEXT/UTF8
Идентификатор кодека/Информация : UTF-8 Plain Text
Продолжительность : 59 м. 4 с.
Битрейт : 70 бит/сек
ElementCount : 789
Размер потока : 30,6 Кбайт (0%)
Заголовок : Romanian
Язык : Romanian
Default : Нет
Forced : Нет
Текст #24
Идентификатор : 27
Формат : UTF-8
Идентификатор кодека : S_TEXT/UTF8
Идентификатор кодека/Информация : UTF-8 Plain Text
Продолжительность : 59 м. 4 с.
Битрейт : 61 бит/сек
ElementCount : 789
Размер потока : 26,8 Кбайт (0%)
Заголовок : Spanish
Язык : Spanish
Default : Нет
Forced : Нет
Текст #25
Идентификатор : 28
Формат : UTF-8
Идентификатор кодека : S_TEXT/UTF8
Идентификатор кодека/Информация : UTF-8 Plain Text
Продолжительность : 59 м. 4 с.
Битрейт : 60 бит/сек
ElementCount : 791
Размер потока : 26,1 Кбайт (0%)
Заголовок : Spanish
Язык : Spanish
Default : Нет
Forced : Нет
Текст #26
Идентификатор : 29
Формат : UTF-8
Идентификатор кодека : S_TEXT/UTF8
Идентификатор кодека/Информация : UTF-8 Plain Text
Продолжительность : 59 м. 4 с.
Битрейт : 61 бит/сек
ElementCount : 727
Размер потока : 26,4 Кбайт (0%)
Заголовок : Swedish
Язык : Swedish
Default : Нет
Forced : Нет
Текст #27
Идентификатор : 30
Формат : UTF-8
Идентификатор кодека : S_TEXT/UTF8
Идентификатор кодека/Информация : UTF-8 Plain Text
Продолжительность : 59 м. 4 с.
Битрейт : 172 бит/сек
ElementCount : 791
Размер потока : 74,6 Кбайт (0%)
Заголовок : Thai
Язык : Thai
Default : Нет
Forced : Нет
Текст #28
Идентификатор : 31
Формат : UTF-8
Идентификатор кодека : S_TEXT/UTF8
Идентификатор кодека/Информация : UTF-8 Plain Text
Продолжительность : 59 м. 4 с.
Битрейт : 65 бит/сек
ElementCount : 789
Размер потока : 28,4 Кбайт (0%)
Заголовок : Turkish
Язык : Turkish
Default : Нет
Forced : Нет
Текст #29
Идентификатор : 32
Формат : UTF-8
Идентификатор кодека : S_TEXT/UTF8
Идентификатор кодека/Информация : UTF-8 Plain Text
Продолжительность : 59 м. 41 с.
Битрейт : 83 бит/сек
ElementCount : 787
Размер потока : 36,4 Кбайт (0%)
Заголовок : Vietnamese
Язык : Vietnamese
Default : Нет
Forced : Нет
-

Скриншоты



-

Внимание! Раздача ведётся путём добавления новых серий

Внимание! Раздача ведётся путём добавления новых серий; при каждом добавлении создаётся новый торрент. Чтобы начать докачку новой серии, пользователям необходимо сделать следующее:
(1) остановить скачивание,
(2) удалить старый торрент у себя из клиента (старые серии удалять не надо),
(3) скачать новый торрент и запустить его у себя в клиенте вместо старого, при этом указать клиенту путь в старую папку куда и должно происходить скачивание новых серий.
Ваш клиент при этом должен произвести хеширование (проверку) старой папки (если не производит сам - помогите ему сделать это), и будет докачивать только те серии которых у вас ещё нет. Старые серии при этом не удаляются, а продолжают раздаваться!
Eсли вы уже удалили старые серии, то предотвратить повторную закачку старых серий можно, отжав галочку в соответствующих местах при запуске нового торрента. По возможности, желательно не удалять старые серии как можно дольше чтобы релизёр не столько продолжал раздавать старые серии, а смог сконцентрироваться на новых.


Последний раз редактировалось: Zgurvas (2019-04-19 16:19), всего редактировалось 16 раз(а)
[Профиль]  [ЛС] 

Zgurvas ®

Стаж: 8 месяца 29 дня

Сообщений: 177

Создавать темы 22-Мар-2019 13:54 (спустя 2 месяца 3 дня)

[Цитировать] 

Торрент-файл обновлён
Добавлена 10 серия.
[Профиль]  [ЛС] 

Zgurvas ®

Стаж: 8 месяца 29 дня

Сообщений: 177

Создавать темы 29-Мар-2019 17:28 (спустя 7 дня)

[Цитировать] 

Торрент-файл обновлён
Добавлена 11 серия.
[Профиль]  [ЛС] 

Zgurvas ®

Стаж: 8 месяца 29 дня

Сообщений: 177

Создавать темы 05-Апр-2019 14:23 (спустя 6 дня)

[Цитировать] 

Торрент-файл обновлён
Добавлена 12 серия.
[Профиль]  [ЛС] 

Zgurvas ®

Стаж: 8 месяца 29 дня

Сообщений: 177

Создавать темы 14-Апр-2019 01:05 (спустя 8 дня)

[Цитировать] 

Торрент-файл обновлён
Добавлена 13 серия.
[Профиль]  [ЛС] 

Zgurvas ®

Стаж: 8 месяца 29 дня

Сообщений: 177

Создавать темы 19-Апр-2019 16:22 (спустя 5 дня)

[Цитировать] 

Торрент-файл обновлён
Добавлена 14 серия.
[Профиль]  [ЛС] 
Показать сообщения:    
Ответить на тему

Текущее время: 22-Апр 02:15

Часовой пояс: UTC + 3



Вы не можете начинать темы
Вы не можете отвечать на сообщения
Вы не можете редактировать свои сообщения
Вы не можете удалять свои сообщения
Вы не можете голосовать в опросах
Вы не можете прикреплять файлы к сообщениям
Вы не можете скачивать файлы