Охотники на Троллей / Trollhunters / Сезон: 1 / Серии: 1-26 из 26 (Родриго Блаас, Грег Тирнан) [2016, США, фэнтези, комедия, приключения, WEB-DL 1080p] DUB (Пифагор) + Original + Sub (Eng + multi)

Ответить на тему
 
Автор Сообщение

Zgurvas ®

Стаж: 8 месяца 26 дня

Сообщений: 194

Создавать темы 17-Янв-2019 21:14

[Цитировать] 

- -- Страна: США
Жанр: мультфильм, фэнтези, комедия, приключения
Продолжительность серии: ~00:22:38
Год выпуска: 2016
Перевод: Профессиональный (полное дублирование) Пифагор-Режиссёр: Родриго Блаас, Грег Тирнан
Сценарий: Марк Хеймс, Том Вилер, Гильермо дель Торо
Роли озвучивали: Антон Ельчин (Джим Лейк Младший / Jim Lake Jr.), Чарльз Сэкстон (Тоби Домзальски/ Toby Domzalski), Лекси Медрано (Клер Нуньез / Claire Nuñez), Келси Грэммер (Блинки (Моргунчик) / Blinky), Фред Татаскьор (АААРРРГГХХХ!!! / AAARRRGGHH!!!), Джонатан Хайд (Мистер Стриклер / Mr. Strickler), Эми Ландекер (Барбара Лейк / Barbara Lake), Клэнси Браун (Гунмар / Gunmar), Томас Кенни (Отто Скаарбах / Otto Scaarbach), Лорен Том (Мэри Вонг / Mary Wang), Мэттью Уотерсон (Драал / Draal), Стивен Юн (Стив Палчак / Steve Palchuk), Ларейн Ньюман (Бабуля / Nana), Коул Сэнд (Илай Пейперджек / Eli Pepperjack), Джимми Вуд (НеЭнрике / NotEnrique), Виктор Рэйдер-Векслер (Вендел / Vendel), Айк Амади (Ангор Рот / Angor Rot), Томас Фрэнсис Уилсон (Тренер Лоуренс / Coach Lawrence) Рон Перлман (Булар / Bular);
Описание: В руки пятнадцатилетнему юноше попадает Магический Амулет, который даёт ему звание Охотника на Троллей, призванного защищать Троллей, живущих под землёй — под человеческим городом Аркадия. «Охотники на Троллей» - мультсериал в жанре комедии и фэнтези, вышедший в 2016 году. Он расскажет о легендарной битве, участниками которой станут Люди и Тролли.-


Предыдущие и альтернативные раздачи
--Качество: WEB-DL 1080р | Trollhunters S01 1080p Netflix WEB-DL DD+ 5.1 x264-TrollHD
Формат: MKV
Видео: MPEG4 AVC, 1920x1080, 23.976 fps, ~5000 Кбит/сек
Аудио : Русский Пифагор: E-AC3, 48 KHz, 640 Kbps
Аудио : Английский (Оригинал): E-AC3, 48 KHz, 640 Kbps
Субтитры: Английские и другие
Реклама: Отсутствует
Релиз: Zgurvas &

Список серий:

01. Становление: Часть 1 | Becoming: Part 1
02. Становление: Часть 2 | Becoming: Part 2
03. Зачем же ты Охотник на троллей? | Wherefore Art Thou, Trollhunter?
04. Пригномь своего врага | Gnome Your Enemy
05. Вака Чака | Waka Chaka!
06. Пан, пропал или Драал | Win Lose or Draal
07. Поймать подменыша | To Catch a Changeling
08. Злоключения тролленяньки | Adventures in Trollsitting
09. Праздник Грустный и Весёлый | Bittersweet Sixteen
10. Юный Атлант | Young Atlas
11. Рецепт катастрофы | Recipe for Disaster
12. Клэр и нависшая угроза | Claire and Present Danger
13. Битва у двух мостов | The Battle of Two Bridges
14. Возвращение Охотника на троллей | Return of the Trollhunter
15. Клевета | Mudslinging
16. Возможна плата за роуминг | Roaming Fees May Apply
17. Выходной Блинки | Blinky's Day Out
18. Разбитый король | The Shattered King
19. Ротозеи | Airheads
20. Где мой разум | Where is My Mind?
21. Монстр вечеринок | Party Monster
22. Успеть вовремя | It's About Time
23. Напарники | Wingmen
24. Управление гневом | Angor Management
25. Незабываемый вечер | A Night to Remember
26. На нас надвигается гниль | Something Rotten This Way Comes

MediaInfo

Полное имя                               : D:\Trollhunters.S01.1080p.WEB-DL.DUB.EniaHD\Trollhunters.S01E01.Becoming.Part.1.1080p.WEB-DL.DUB.EniaHD.mkv
Формат : Matroska
Версия формата : Version 4
Размер файла : 1013 Мбайт
Продолжительность : 23 м. 38 с.
Режим общего битрейта : Переменный
Общий поток : 5990 Кбит/сек
Название фильма : Становление: Часть 1
Дата кодирования : UTC 2019-01-17 15:07:18
Программа кодирования : mkvmerge v30.1.0 ('Forever And More') 32-bit
Библиотека кодирования : libebml v1.3.6 + libmatroska v1.4.9
Обложка : Yes
Attachments : cover.trollhunters.jpg
Видео
Идентификатор : 1
Формат : AVC
Формат/Информация : Advanced Video Codec
Профиль формата : [email protected]
Настройки формата : CABAC / 3 Ref Frames
Параметр CABAC формата : Да
Параметр RefFrames формата : 3 кадра
Идентификатор кодека : V_MPEG4/ISO/AVC
Продолжительность : 23 м. 36 с.
Вид битрейта : Переменный
Битрейт : 4870 Кбит/сек
Максимальный битрейт : 7305 Кбит/сек
Ширина : 1920 пикселей
Высота : 1080 пикселей
Соотношение сторон : 16:9
Режим частоты кадров : Постоянный
Частота кадров : 23,976 (24000/1001) кадра/сек
Цветовое пространство : YUV
Субдискретизация насыщенности : 4:2:0
Битовая глубина : 8 бит
Тип развёртки : Прогрессивная
Бит/(Пиксели*Кадры) : 0.098
Размер потока : 795 Мбайт (78%)
Библиотека кодирования : x264 core 118
Настройки программы : cabac=1 / ref=3 / deblock=1:0:0 / analyse=0x1:0x111 / me=umh / subme=10 / psy=1 / psy_rd=1.00:0.00 / mixed_ref=1 / me_range=24 / chroma_me=1 / trellis=2 / 8x8dct=0 / cqm=0 / deadzone=21,11 / fast_pskip=1 / chroma_qp_offset=-2 / threads=6 / sliced_threads=0 / nr=0 / decimate=1 / interlaced=0 / bluray_compat=0 / constrained_intra=0 / bframes=2 / b_pyramid=0 / b_adapt=2 / b_bias=0 / direct=3 / weightb=1 / open_gop=0 / weightp=2 / keyint=48 / keyint_min=25 / scenecut=0 / intra_refresh=0 / rc_lookahead=0 / rc=2pass / mbtree=1 / bitrate=4870 / ratetol=1.0 / qcomp=0.50 / qpmin=6 / qpmax=51 / qpstep=4 / cplxblur=20.0 / qblur=0.5 / vbv_maxrate=7305 / vbv_bufsize=9740 / nal_hrd=vbr / ip_ratio=1.40 / aq=1:1.00
Язык : English
Default : Да
Forced : Нет
Аудио #1
Идентификатор : 2
Формат : E-AC-3
Формат/Информация : Enhanced AC-3
Коммерческое название : Dolby Digital Plus
Идентификатор кодека : A_EAC3
Продолжительность : 23 м. 38 с.
Вид битрейта : Постоянный
Битрейт : 640 Кбит/сек
Каналы : 6 каналов
Channel layout : L R C LFE Ls Rs
Частота : 48,0 КГц
Частота кадров : 31,250 кадров/сек (1536 SPF)
Метод сжатия : С потерями
Размер потока : 108 Мбайт (11%)
Заголовок : E-AC3 5.1 @ 640 kbps - DUB, Пифагор
Язык : Russian
ServiceKind/String : Complete Main
Default : Да
Forced : Нет
Аудио #2
Идентификатор : 3
Формат : E-AC-3
Формат/Информация : Enhanced AC-3
Коммерческое название : Dolby Digital Plus
Идентификатор кодека : A_EAC3
Продолжительность : 23 м. 36 с.
Вид битрейта : Постоянный
Битрейт : 640 Кбит/сек
Каналы : 6 каналов
Channel layout : L R C LFE Ls Rs
Частота : 48,0 КГц
Частота кадров : 31,250 кадров/сек (1536 SPF)
Метод сжатия : С потерями
Размер потока : 108 Мбайт (11%)
Заголовок : E-AC3 5.1 @ 640 kbps - Original
Язык : English
ServiceKind/String : Complete Main
Default : Нет
Forced : Нет
Текст #1
Идентификатор : 4
Формат : UTF-8
Идентификатор кодека : S_TEXT/UTF8
Идентификатор кодека/Информация : UTF-8 Plain Text
Продолжительность : 21 м. 24 с.
Битрейт : 74 бит/сек
ElementCount : 347
Размер потока : 11,6 Кбайт (0%)
Заголовок : English
Язык : English
Default : Нет
Forced : Нет
Текст #2
Идентификатор : 5
Формат : UTF-8
Идентификатор кодека : S_TEXT/UTF8
Идентификатор кодека/Информация : UTF-8 Plain Text
Продолжительность : 22 м. 36 с.
Битрейт : 131 бит/сек
ElementCount : 267
Размер потока : 21,8 Кбайт (0%)
Заголовок : Hindi
Язык : Hindi
Default : Нет
Forced : Нет
Текст #3
Идентификатор : 6
Формат : UTF-8
Идентификатор кодека : S_TEXT/UTF8
Идентификатор кодека/Информация : UTF-8 Plain Text
Продолжительность : 21 м. 33 с.
Битрейт : 53 бит/сек
ElementCount : 240
Размер потока : 8,47 Кбайт (0%)
Заголовок : Norwegian
Язык : Norwegian
Default : Нет
Forced : Нет
Текст #4
Идентификатор : 7
Формат : UTF-8
Идентификатор кодека : S_TEXT/UTF8
Идентификатор кодека/Информация : UTF-8 Plain Text
Продолжительность : 21 м. 33 с.
Битрейт : 58 бит/сек
ElementCount : 265
Размер потока : 9,31 Кбайт (0%)
Заголовок : Romanian
Язык : Romanian
Default : Нет
Forced : Нет
Текст #5
Идентификатор : 8
Формат : UTF-8
Идентификатор кодека : S_TEXT/UTF8
Идентификатор кодека/Информация : UTF-8 Plain Text
Продолжительность : 21 м. 57 с.
Битрейт : 95 бит/сек
ElementCount : 261
Размер потока : 15,4 Кбайт (0%)
Заголовок : Greek
Язык : Greek
Default : Нет
Forced : Нет
Текст #6
Идентификатор : 9
Формат : UTF-8
Идентификатор кодека : S_TEXT/UTF8
Идентификатор кодека/Информация : UTF-8 Plain Text
Продолжительность : 21 м. 33 с.
Битрейт : 62 бит/сек
ElementCount : 268
Размер потока : 9,81 Кбайт (0%)
Заголовок : German
Язык : German
Default : Нет
Forced : Нет
Текст #7
Идентификатор : 10
Формат : UTF-8
Идентификатор кодека : S_TEXT/UTF8
Идентификатор кодека/Информация : UTF-8 Plain Text
Продолжительность : 21 м. 33 с.
Битрейт : 144 бит/сек
ElementCount : 268
Размер потока : 22,9 Кбайт (0%)
Заголовок : Thai
Язык : Thai
Default : Нет
Forced : Нет
Текст #8
Идентификатор : 11
Формат : UTF-8
Идентификатор кодека : S_TEXT/UTF8
Идентификатор кодека/Информация : UTF-8 Plain Text
Продолжительность : 22 м. 9 с.
Битрейт : 74 бит/сек
ElementCount : 296
Размер потока : 12,1 Кбайт (0%)
Заголовок : Japanese
Язык : Japanese
Default : Нет
Forced : Нет
Текст #9
Идентификатор : 12
Формат : UTF-8
Идентификатор кодека : S_TEXT/UTF8
Идентификатор кодека/Информация : UTF-8 Plain Text
Продолжительность : 21 м. 33 с.
Битрейт : 61 бит/сек
ElementCount : 252
Размер потока : 9,79 Кбайт (0%)
Заголовок : Portuguese
Язык : Portuguese
Default : Нет
Forced : Нет
Текст #10
Идентификатор : 13
Формат : UTF-8
Идентификатор кодека : S_TEXT/UTF8
Идентификатор кодека/Информация : UTF-8 Plain Text
Продолжительность : 21 м. 40 с.
Битрейт : 64 бит/сек
ElementCount : 261
Размер потока : 10,2 Кбайт (0%)
Заголовок : Italian
Язык : Italian
Default : Нет
Forced : Нет
Текст #11
Идентификатор : 14
Формат : UTF-8
Идентификатор кодека : S_TEXT/UTF8
Идентификатор кодека/Информация : UTF-8 Plain Text
Продолжительность : 21 м. 33 с.
Битрейт : 56 бит/сек
ElementCount : 259
Размер потока : 8,99 Кбайт (0%)
Заголовок : Brazilian Portuguese
Язык : Portuguese
Default : Нет
Forced : Нет
Текст #12
Идентификатор : 15
Формат : UTF-8
Идентификатор кодека : S_TEXT/UTF8
Идентификатор кодека/Информация : UTF-8 Plain Text
Продолжительность : 21 м. 33 с.
Битрейт : 51 бит/сек
ElementCount : 265
Размер потока : 8,20 Кбайт (0%)
Заголовок : Simplified Chinese
Язык : Chinese
Default : Нет
Forced : Нет
Текст #13
Идентификатор : 16
Формат : UTF-8
Идентификатор кодека : S_TEXT/UTF8
Идентификатор кодека/Информация : UTF-8 Plain Text
Продолжительность : 21 м. 33 с.
Битрейт : 77 бит/сек
ElementCount : 267
Размер потока : 12,2 Кбайт (0%)
Заголовок : Vietnamese
Язык : Vietnamese
Default : Нет
Forced : Нет
Текст #14
Идентификатор : 17
Формат : UTF-8
Идентификатор кодека : S_TEXT/UTF8
Идентификатор кодека/Информация : UTF-8 Plain Text
Продолжительность : 21 м. 33 с.
Битрейт : 52 бит/сек
ElementCount : 264
Размер потока : 8,24 Кбайт (0%)
Заголовок : Swedish
Язык : Swedish
Default : Нет
Forced : Нет
Текст #15
Идентификатор : 18
Формат : UTF-8
Идентификатор кодека : S_TEXT/UTF8
Идентификатор кодека/Информация : UTF-8 Plain Text
Продолжительность : 21 м. 33 с.
Битрейт : 51 бит/сек
ElementCount : 214
Размер потока : 8,09 Кбайт (0%)
Заголовок : Finnish
Язык : Finnish
Default : Нет
Forced : Нет
Текст #16
Идентификатор : 19
Формат : UTF-8
Идентификатор кодека : S_TEXT/UTF8
Идентификатор кодека/Информация : UTF-8 Plain Text
Продолжительность : 21 м. 33 с.
Битрейт : 62 бит/сек
ElementCount : 264
Размер потока : 9,87 Кбайт (0%)
Заголовок : Spanish
Язык : Spanish
Default : Нет
Forced : Нет
Текст #17
Идентификатор : 20
Формат : UTF-8
Идентификатор кодека : S_TEXT/UTF8
Идентификатор кодека/Информация : UTF-8 Plain Text
Продолжительность : 21 м. 33 с.
Битрейт : 54 бит/сек
ElementCount : 242
Размер потока : 8,65 Кбайт (0%)
Заголовок : European Spanish
Язык : Spanish
Default : Нет
Forced : Нет
Текст #18
Идентификатор : 21
Формат : UTF-8
Идентификатор кодека : S_TEXT/UTF8
Идентификатор кодека/Информация : UTF-8 Plain Text
Продолжительность : 21 м. 33 с.
Битрейт : 83 бит/сек
ElementCount : 266
Размер потока : 13,2 Кбайт (0%)
Заголовок : Hebrew
Язык : Hebrew
Default : Нет
Forced : Нет
Текст #19
Идентификатор : 22
Формат : UTF-8
Идентификатор кодека : S_TEXT/UTF8
Идентификатор кодека/Информация : UTF-8 Plain Text
Продолжительность : 21 м. 35 с.
Битрейт : 87 бит/сек
ElementCount : 267
Размер потока : 13,8 Кбайт (0%)
Заголовок : Arabic
Язык : Arabic
Default : Нет
Forced : Нет
Текст #20
Идентификатор : 23
Формат : UTF-8
Идентификатор кодека : S_TEXT/UTF8
Идентификатор кодека/Информация : UTF-8 Plain Text
Продолжительность : 21 м. 33 с.
Битрейт : 51 бит/сек
ElementCount : 236
Размер потока : 8,15 Кбайт (0%)
Заголовок : Dutch
Язык : Dutch
Default : Нет
Forced : Нет
Текст #21
Идентификатор : 24
Формат : UTF-8
Идентификатор кодека : S_TEXT/UTF8
Идентификатор кодека/Информация : UTF-8 Plain Text
Продолжительность : 21 м. 42 с.
Битрейт : 57 бит/сек
ElementCount : 266
Размер потока : 9,17 Кбайт (0%)
Заголовок : Polish
Язык : Polish
Default : Нет
Forced : Нет
Текст #22
Идентификатор : 25
Формат : UTF-8
Идентификатор кодека : S_TEXT/UTF8
Идентификатор кодека/Информация : UTF-8 Plain Text
Продолжительность : 21 м. 32 с.
Битрейт : 53 бит/сек
ElementCount : 252
Размер потока : 8,48 Кбайт (0%)
Заголовок : Danish
Язык : Danish
Default : Нет
Forced : Нет
Текст #23
Идентификатор : 26
Формат : UTF-8
Идентификатор кодека : S_TEXT/UTF8
Идентификатор кодека/Информация : UTF-8 Plain Text
Продолжительность : 21 м. 33 с.
Битрейт : 55 бит/сек
ElementCount : 265
Размер потока : 8,71 Кбайт (0%)
Заголовок : Traditional Chinese
Язык : Chinese
Default : Нет
Forced : Нет
Текст #24
Идентификатор : 27
Формат : UTF-8
Идентификатор кодека : S_TEXT/UTF8
Идентификатор кодека/Информация : UTF-8 Plain Text
Продолжительность : 21 м. 33 с.
Битрейт : 71 бит/сек
ElementCount : 268
Размер потока : 11,2 Кбайт (0%)
Заголовок : Korean
Язык : Korean
Default : Нет
Forced : Нет
Текст #25
Идентификатор : 28
Формат : UTF-8
Идентификатор кодека : S_TEXT/UTF8
Идентификатор кодека/Информация : UTF-8 Plain Text
Продолжительность : 21 м. 33 с.
Битрейт : 61 бит/сек
ElementCount : 263
Размер потока : 9,75 Кбайт (0%)
Заголовок : French
Язык : French
Default : Нет
Forced : Нет
Текст #26
Идентификатор : 29
Формат : UTF-8
Идентификатор кодека : S_TEXT/UTF8
Идентификатор кодека/Информация : UTF-8 Plain Text
Продолжительность : 22 м. 14 с.
Битрейт : 61 бит/сек
ElementCount : 267
Размер потока : 10,0 Кбайт (0%)
Заголовок : Turkish
Язык : Turkish
Default : Нет
Forced : Нет
Текст #27
Идентификатор : 30
Формат : UTF-8
Идентификатор кодека : S_TEXT/UTF8
Идентификатор кодека/Информация : UTF-8 Plain Text
Продолжительность : 21 м. 24 с.
Битрейт : 107 бит/сек
ElementCount : 274
Размер потока : 16,8 Кбайт (0%)
Заголовок : Bulgarian
Язык : Bulgarian
Default : Нет
Forced : Нет

Скриншоты



[Профиль]  [ЛС] 
Показать сообщения:    
Ответить на тему

Текущее время: 19-Апр 00:23

Часовой пояс: UTC + 3



Вы не можете начинать темы
Вы не можете отвечать на сообщения
Вы не можете редактировать свои сообщения
Вы не можете удалять свои сообщения
Вы не можете голосовать в опросах
Вы не можете прикреплять файлы к сообщениям
Вы не можете скачивать файлы