Последнее королевство / The Last Kingdom / Сезон: 3 / Серии: 1-10 из 10 (Бен Чанан, Энтони Бирн) [2018, Великобритания, боевик, драма, история, WEBRip] Dub (Netflix) + Original

Ответить на тему
 
Автор Сообщение

Wilmots ®

Стаж: 8 месяца 29 дня

Сообщений: 101

Создавать темы 21-Ноя-2018 18:48

[Цитировать] 

Последнее королевство / The Last Kingdom- Год выпуска: 2018
Страна: Великобритания
Жанр: боевик, драма, история
Продолжительность: 00:54:58-Перевод: Профессиональный (дублированный) - Netflix-Режиссёр: Бен Чанан, Энтони Бирн-В ролях: Александр Дреймон, Николас Роу, Эмили Кокс, Дэвид Доусон, Иэн Харт, Герард Кернс, Алек Ньюман и др.-Описание: Сюжет рассказывает о временах правления короля Уэссекса Альфреда Великого, сумевшего отвоевать английские земли у датских викингов — заморских захватчиков. Главным героем повествования выступает ещё в младенчестве похищенный данами Утред — потомок благородного саксонского рода. Воспитанный как викинг, в очень непростой момент жизненного выбора молодой воин должен будет решить для себя, чью сторону он примет в решающих сражениях за судьбу древней Британии.
Сэмпл: http://multi-up.com/1215486
Качество: WEBRip
Формат: AVI
Видео: 720х400 (16:9), 25.000 fps, XviD build 73, 1385 Kbps, 0.19 Bits/Pixel
Аудио 1: MP3, 48.0 KHz, 2 ch, 128 Кбит/с [Rus]
Аудио 2: MP3, 48.0 KHz, 2 ch, 128 Кбит/с [Eng]
Субтитры: Русские (форсированные- вшитые)-Реклама: Отсутствует-

MediaInfo

General
Complete name : Downloads\The Last Kingdom (S03)\The.Last.Kingdom.S03E01.WEB-DLRip.Rus.Eng.Netflix.avi
Format : AVI
Format/Info : Audio Video Interleave
File size : 651 MiB
Duration : 54mn 58s
Overall bit rate : 1 656 Kbps
Writing application : VirtualDubMod 1.5.10.3 | www.virtualdub-fr.org || (build 2550/release)
Writing library : VirtualDubMod build 2550/release
Video #0
ID : 0
Format : MPEG-4 Visual
Format profile : Advanced [email protected]
Format settings, BVOP : 1
Format settings, QPel : No
Format settings, GMC : No warppoints
Format settings, Matrix : Custom
Codec ID : XVID
Codec ID/Hint : XviD
Duration : 54mn 58s
Bit rate : 1 385 Kbps
Width : 720 pixels
Height : 400 pixels
Display aspect ratio : 16:9
Frame rate : 25.000 fps
Color space : YUV
Chroma subsampling : 4:2:0
Bit depth : 8 bits
Scan type : Progressive
Compression mode : Lossy
Bits/(Pixel*Frame) : 0.192
Stream size : 545 MiB (84%)
Writing library : XviD 73
Audio #1
ID : 1
Format : MPEG Audio
Format version : Version 1
Format profile : Layer 3
Mode : Joint stereo
Mode extension : MS Stereo
Codec ID : 55
Codec ID/Hint : MP3
Duration : 54mn 58s
Bit rate mode : Constant
Bit rate : 128 Kbps
Channel(s) : 2 channels
Sampling rate : 48.0 KHz
Compression mode : Lossy
Stream size : 50.3 MiB (8%)
Alignment : Aligned on interleaves
Interleave, duration : 40 ms (1.00 video frame)
Interleave, preload duration : 504 ms
Audio #2
ID : 2
Format : MPEG Audio
Format version : Version 1
Format profile : Layer 3
Mode : Joint stereo
Mode extension : MS Stereo
Codec ID : 55
Codec ID/Hint : MP3
Duration : 54mn 58s
Bit rate mode : Constant
Bit rate : 128 Kbps
Channel(s) : 2 channels
Sampling rate : 48.0 KHz
Compression mode : Lossy
Stream size : 50.3 MiB (8%)
Alignment : Aligned on interleaves
Interleave, duration : 40 ms (1.00 video frame)
Interleave, preload duration : 504 ms

Скриншоты

Предыдущие и альтернативные раздачи
[Профиль]  [ЛС] 
Показать сообщения:    
Ответить на тему

Текущее время: 22-Апр 02:16

Часовой пояс: UTC + 3



Вы не можете начинать темы
Вы не можете отвечать на сообщения
Вы не можете редактировать свои сообщения
Вы не можете удалять свои сообщения
Вы не можете голосовать в опросах
Вы не можете прикреплять файлы к сообщениям
Вы не можете скачивать файлы