Гранд Тур / The Grand Tour / Сезон: 3 / Серии: 1-7 из 12 [2019, Великобритания, США, Автопередача, WEB-DL 1080p] 2x MVO (AlexFilm, NewStudio) + Original + Sub (Rus, Eng)

Ответить на тему
 
Автор Сообщение

Keedof ®

Стаж: 6 месяца 30 дня

Сообщений: 31

Создавать темы 19-Янв-2019 11:34

[Цитировать] 

Гранд Тур | The Grand Tour- Год выпуска: 2019
Страна: Великобритания, США
Жанр: Автопередача
Продолжительность: ~ 01:10:00-Перевод №1: Профессиональный (многоголосый закадровый) | AlexFilm
Перевод №2: Профессиональный (многоголосый закадровый) | NewStudio*-Режиссер: Фил Чурчуорд, Кит Линч Робинсон, Гэвин Уайтхед
В ролях: Джереми Кларксон, Ричард Хаммонд, Джеймс Мэй-Описание: Гранд Тур — это новое автомобильное шоу во главе с неизменной тройкой легендарных ведущих — Джереми Кларксоном, Ричардом Хаммондом и Джеймсом Мэйем. Распрощавшись с Top Gear, они создали новое детище в области автомобильных развлекательных шоу.-
Ссылка на предыдущие и альтернативные раздачи "The Grand Tour"
- -Качество: WEB-DL 1080p
Формат: MKV
Видео: AVC, 1920x1080 (16:9), 25 fps, ~8000 Kbps
Аудио №1: AC3, 48,0 kHz, 6 ch, 384 kbps | AlexFilm
Аудио №2: AC3, 48,0 kHz, 6 ch, 384 kbps | NewStudio*
Аудио №3: AC3, 48,0 kHz, 6 ch, 640 kbps | Original
Субтитры: Русские (Full |Amazon|, Forced |NewStudio|, английские (Full, SDH), арабские, китайские, датские, немецкие, испанские, финские, французские, хинди, индонезийские, итальянские, корейские, норвежские, фламандские, польские, португальские, шведские, тамильские, телугу, турецкие
* до 3 серии!
Реклама: Отсутствует
Исходник: The.Grand.Tour.2019.S03.1080p.AMZN.WEB-DL.DDP5.1.x264-QOQ-

Список серий

01. Motown Funk
02. The Colombia Special, Part 1
03. The Colombia Special, Part 2
04. Pick Up Put Downs
05. An Itchy Urus
06. Chinese Food for Thought
07. Well Aged Scotch

MediaInfo

Complete name : D:\The_Grand_Tour_(s03)_1080p\The.Grand.Tour.2019.S03E01.Motown.Funk.1080p.AMZN.WEB-DL.DD5.1.x264-QOQ.mkv
Format : Matroska
Format version : Version 2
File size : 4.46 GiB
Duration : 1 h 8 min
Overall bit rate : 9 275 kb/s
Encoded date : UTC 2019-01-19 08:25:29
Writing application : mkvmerge v4.9.1 ('Ich will') сборка от Jul 11 2011 23:53:15
Writing library : libebml v1.2.1 + libmatroska v1.1.1
Video
ID : 1
Format : AVC
Format/Info : Advanced Video Codec
Format profile : High@L4
Format settings : CABAC / 4 Ref Frames
Format settings, CABAC : Yes
Format settings, ReFrames : 4 frames
Codec ID : V_MPEG4/ISO/AVC
Duration : 1 h 8 min
Bit rate : 8 067 kb/s
Width : 1 920 pixels
Height : 1 080 pixels
Display aspect ratio : 16:9
Frame rate mode : Constant
Frame rate : 25.000 FPS
Color space : YUV
Chroma subsampling : 4:2:0
Bit depth : 8 bits
Scan type : Progressive
Bits/(Pixel*Frame) : 0.156
Stream size : 3.88 GiB (87%)
Title : Release by EniaHD
Default : Yes
Forced : No
Color range : Limited
Color primaries : BT.709
Transfer characteristics : BT.709
Matrix coefficients : BT.709
Audio #1
ID : 2
Format : AC-3
Format/Info : Audio Coding 3
Codec ID : A_AC3
Duration : 1 h 8 min
Bit rate mode : Constant
Bit rate : 384 kb/s
Channel(s) : 6 channels
Channel positions : Front: L C R, Side: L R, LFE
Sampling rate : 48.0 kHz
Frame rate : 31.250 FPS (1536 SPF)
Bit depth : 16 bits
Compression mode : Lossy
Stream size : 189 MiB (4%)
Title : AlexFilm
Language : Russian
Service kind : Complete Main
Default : Yes
Forced : No
Audio #2
ID : 3
Format : AC-3
Format/Info : Audio Coding 3
Codec ID : A_AC3
Duration : 1 h 8 min
Bit rate mode : Constant
Bit rate : 640 kb/s
Channel(s) : 6 channels
Channel positions : Front: L C R, Side: L R, LFE
Sampling rate : 48.0 kHz
Frame rate : 31.250 FPS (1536 SPF)
Bit depth : 16 bits
Compression mode : Lossy
Stream size : 315 MiB (7%)
Language : English
Service kind : Complete Main
Default : No
Forced : No
Text #1
ID : 4
Format : UTF-8
Codec ID : S_TEXT/UTF8
Codec ID/Info : UTF-8 Plain Text
Title : Full
Language : Russian
Default : No
Forced : No
Text #2
ID : 5
Format : UTF-8
Codec ID : S_TEXT/UTF8
Codec ID/Info : UTF-8 Plain Text
Title : Full
Language : English
Default : No
Forced : No
Text #3
ID : 6
Format : UTF-8
Codec ID : S_TEXT/UTF8
Codec ID/Info : UTF-8 Plain Text
Title : SDH
Language : English
Default : No
Forced : No
Text #4
ID : 7
Format : UTF-8
Codec ID : S_TEXT/UTF8
Codec ID/Info : UTF-8 Plain Text
Language : Arabic
Default : No
Forced : No
Text #5
ID : 8
Format : UTF-8
Codec ID : S_TEXT/UTF8
Codec ID/Info : UTF-8 Plain Text
Language : Chinese
Default : No
Forced : No
Text #6
ID : 9
Format : UTF-8
Codec ID : S_TEXT/UTF8
Codec ID/Info : UTF-8 Plain Text
Language : Chinese
Default : No
Forced : No
Text #7
ID : 10
Format : UTF-8
Codec ID : S_TEXT/UTF8
Codec ID/Info : UTF-8 Plain Text
Language : Danish
Default : No
Forced : No
Text #8
ID : 11
Format : UTF-8
Codec ID : S_TEXT/UTF8
Codec ID/Info : UTF-8 Plain Text
Language : German
Default : No
Forced : No
Text #9
ID : 12
Format : UTF-8
Codec ID : S_TEXT/UTF8
Codec ID/Info : UTF-8 Plain Text
Language : Spanish
Default : No
Forced : No
Text #10
ID : 13
Format : UTF-8
Codec ID : S_TEXT/UTF8
Codec ID/Info : UTF-8 Plain Text
Language : Spanish
Default : No
Forced : No
Text #11
ID : 14
Format : UTF-8
Codec ID : S_TEXT/UTF8
Codec ID/Info : UTF-8 Plain Text
Language : Finnish
Default : No
Forced : No
Text #12
ID : 15
Format : UTF-8
Codec ID : S_TEXT/UTF8
Codec ID/Info : UTF-8 Plain Text
Language : French
Default : No
Forced : No
Text #13
ID : 16
Format : UTF-8
Codec ID : S_TEXT/UTF8
Codec ID/Info : UTF-8 Plain Text
Language : Hindi
Default : No
Forced : No
Text #14
ID : 17
Format : UTF-8
Codec ID : S_TEXT/UTF8
Codec ID/Info : UTF-8 Plain Text
Language : Indonesian
Default : No
Forced : No
Text #15
ID : 18
Format : UTF-8
Codec ID : S_TEXT/UTF8
Codec ID/Info : UTF-8 Plain Text
Language : Italian
Default : No
Forced : No
Text #16
ID : 19
Format : UTF-8
Codec ID : S_TEXT/UTF8
Codec ID/Info : UTF-8 Plain Text
Language : Korean
Default : No
Forced : No
Text #17
ID : 20
Format : UTF-8
Codec ID : S_TEXT/UTF8
Codec ID/Info : UTF-8 Plain Text
Language : Norwegian Bokmal
Default : No
Forced : No
Text #18
ID : 21
Format : UTF-8
Codec ID : S_TEXT/UTF8
Codec ID/Info : UTF-8 Plain Text
Language : Dutch
Default : No
Forced : No
Text #19
ID : 22
Format : UTF-8
Codec ID : S_TEXT/UTF8
Codec ID/Info : UTF-8 Plain Text
Language : Polish
Default : No
Forced : No
Text #20
ID : 23
Format : UTF-8
Codec ID : S_TEXT/UTF8
Codec ID/Info : UTF-8 Plain Text
Language : Portuguese
Default : No
Forced : No
Text #21
ID : 24
Format : UTF-8
Codec ID : S_TEXT/UTF8
Codec ID/Info : UTF-8 Plain Text
Language : Swedish
Default : No
Forced : No
Text #22
ID : 25
Format : UTF-8
Codec ID : S_TEXT/UTF8
Codec ID/Info : UTF-8 Plain Text
Language : Tamil
Default : No
Forced : No
Text #23
ID : 26
Format : UTF-8
Codec ID : S_TEXT/UTF8
Codec ID/Info : UTF-8 Plain Text
Language : Telugu
Default : No
Forced : No
Text #24
ID : 27
Format : UTF-8
Codec ID : S_TEXT/UTF8
Codec ID/Info : UTF-8 Plain Text
Language : Turkish
Default : No
Forced : No
Menu
00:00:00.000 : en:Amazon Original
00:00:05.000 : en:Title Sequence
00:00:55.000 : en:What to expect this season
00:03:37.000 : en:The Grand Tour is off to The Motor City
00:10:31.000 : en:The joy of muscle cars
00:12:25.000 : en:Drag racing through the streets of Detroit
00:18:16.000 : en:Who can make the most noise
00:24:58.000 : en:Setting out to find food
00:27:33.000 : en:Conversation Street
00:33:59.000 : en:Jeremy test drives the new McLaren P1 and the Senna
00:42:03.000 : en:Jeremy makes another bet
00:46:13.000 : en:Time to build a race track
00:53:36.000 : en:The Demon vs The Exorcist vs The Blue Nun
00:58:20.000 : en:Jeremy gives the audience the power to choose
01:00:20.000 : en:Good vs Evil
01:06:35.000 : en:What makes a muscle car?
01:08:18.000 : en:End Credits

Скриншоты

Релиз подготовлен EniaHD



Последний раз редактировалось: Keedof (Вчера, в 14:22), всего редактировалось 9 раз(а)
[Профиль]  [ЛС] 

Keedof ®

Стаж: 6 месяца 30 дня

Сообщений: 31

Создавать темы Вчера, в 14:23 (спустя 1 месяц 4 дня)

[Цитировать] 

Добавлена 7 серия (AlexFilm)!
Заменена 3 серия (добавлена озвучка NewStudio)!
[Профиль]  [ЛС] 
Показать сообщения:    
Ответить на тему

Текущее время: 24-Фев 03:17

Часовой пояс: UTC + 3



Вы не можете начинать темы
Вы не можете отвечать на сообщения
Вы не можете редактировать свои сообщения
Вы не можете удалять свои сообщения
Вы не можете голосовать в опросах
Вы не можете прикреплять файлы к сообщениям
Вы не можете скачивать файлы