Очень странные дела / Загадочные события / Stranger Things / Сезон: 1 / Серии: 1-8 из 8 (Мэтт Даффер, Росс Даффер, Шон Леви) [2016, США, ужасы, фантастика, детектив, BDRemux 2160p] DUB (Пифагор) + 2x MVO (Jaskier, LostFilm)+ Original + Sub (Rus, Eng)

Ответить на тему
 
Автор Сообщение

Zgurvas ®

Стаж: 7 месяца

Сообщений: 137

Создавать темы 29-Окт-2018 14:59

[Цитировать] 

Очень странные дела / Stranger Things
Год выпуска: 2016
Страна: США
Жанр: ужасы, фантастика, фэнтези, триллер, драма, детектив
Продолжительность: ~00:45:00
Перевод 1: Профессиональный (полное дублирование): Пифагор
Перевод 2: Профессиональный (многоголосый закадровый) Jaskier
Перевод 3: Профессиональный (многоголосый закадровый) LostFilm
Режиссёр: Мэтт Даффер, Росс Даффер, Шон Леви
В ролях: Вайнона Райдер, Дэвид Харбор, Финн Вулфхарт, Милли Бобби Браун, Гейтен Матараццо, Кейлеб МакЛохлен, Наталия Дайер, Чарли Хитон, Кейра Буоно, Мэттью Модайн и др.
Описание: Действие сериала разворачивается в 80-х годах в тихом провинциальном городке. Благоприятное течение местной жизни нарушает загадочное исчезновение подростка по имени Уилл. Выяснить обстоятельства дела полны решимости родные мальчика и местный шериф. Также события затрагивают лучшего друга Уилла — Майка. Он начинает собственное расследование. Майк уверен, что близок к разгадке, и теперь ему предстоит оказаться в эпицентре ожесточенной битвы потусторонних сил.

Ссылка на предыдущие и альтернативные раздачи
Сэмпл
Качество: BDRemux 2160p | Stranger Things S01 2160p UHD BluRay REMUX SDR HEVC TrueHD 5.1-EPSiLON
Контейнер: MKV
Видео: HEVC, 3840x2160 (16:9), 23.976 fps, 39.0 Mbps (0.196 bit/pixel)
Аудио 1: Russian: 48 KHz, AC3, 3/2 (L,C,R,l,r) + LFE ch, 640 kbps (Пифагор)
Аудио 2: Russian: 48 kHz, DTS-HD MA, 3/2 (L,C,R,l,r) + LFE ch, ~3700.00 kbps Jaskier
Аудио 3: Russian: 48 kHz, DTS-HD MA, 3/2 (L,C,R,l,r) + LFE ch, ~3700.00 kbps LostFilm
Аудио 4: English: 48 kHz, DTS-HD MA, 3/2 (L,C,R,l,r) + LFE ch, ~3700.00 kbps (Original)
Аудио 5: English: 48 KHz, AC3, 3/2 (L,C,R,l,r) + LFE ch, 640 kbps (Original)
Субтитры: Русские (Forced, Full), английские (SDH)
Реклама: Отсутствует
Релиз: Спасибо

Релиз

Профессиональный дублированный перевод: Пифагор - работа со звуком Zgurvas
Профессиональный многоголосый закадровый: Jaskier,
Профессиональный многоголосый закадровый: LostFilm - работа со звуком serial_M
Сбор материала и оформление релиза: Atla22

Список серий

01. Глава первая: Исчезновение Уилла Байерса | Chapter One: The Vanishing of Will Byers
02. Глава вторая: Чудак на Мэйпл-стрит | Chapter Two: The Weirdo on Maple Street
03. Глава третья: Рождественские огни | Chapter Three: Holly, Jolly
04. Глава четвёртая: Тело | Chapter Four: The Body
05. Глава пятая: Блоха и акробат | Chapter Five: The Flea and the Acrobat
06. Глава шестая: Монстр | Chapter Six: The Monster
07. Глава седьмая: Ванна | Chapter Seven: The Bathtub
08. Глава восьмая: Вверх ногами | Chapter Eight: The Upside Down

MediaInfo

Общее
Уникальный идентификатор : 172084293977000061346070375046199968199 (0x81763ABEBC7A339F388DD0463F1501C7)
Полное имя : Очень странные дела. 1 сезон. 2016. DUB, 2xMVO (Blu-Ray Remux HEVC 2160p)\Stranger.Things.s01e01. Исчезновение Уилла Байерса.mkv
Формат : Matroska
Версия формата : Version 4
Размер файла : 17,0 Гбайт
Продолжительность : 47 м. 32 с.
Режим общего битрейта : Переменный
Общий поток : 51,3 Мбит/сек
Название фильма : Chapter One: The Vanishing of Will Byers
Дата кодирования : UTC 2018-10-28 19:13:45
Программа кодирования : mkvmerge v25.0.0 ('Prog Noir') 64-bit
Библиотека кодирования : libebml v1.3.6 + libmatroska v1.4.9
Видео
Идентификатор : 1
Формат : HEVC
Формат/Информация : High Efficiency Video Coding
Профиль формата : Main 10@L5.1@High
Идентификатор кодека : V_MPEGH/ISO/HEVC
Продолжительность : 47 м. 32 с.
Битрейт : 39,0 Мбит/сек
Ширина : 3840 пикселей
Высота : 2160 пикселей
Соотношение сторон : 16:9
Режим частоты кадров : Постоянный
Частота кадров : 23,976 (24000/1001) кадра/сек
Цветовое пространство : YUV
Субдискретизация насыщенности : 4:2:0 (Type 2)
Битовая глубина : 10 бит
Бит/(Пиксели*Кадры) : 0.196
Размер потока : 12,9 Гбайт (76%)
Заголовок : MPEG-H HEVC Video / ~38987 kbps / 2160p / 23.976 fps / 16:9 / Main 10 Profile 5.1 High / 4:2:0 / 10 bits / SDR / BT.709
Библиотека кодирования : ATEME Titan File 3.8.10 (4.8.10.0)
Язык : English
Default : Да
Forced : Нет
Цветовой диапазон : Limited
Основные цвета : BT.709
Характеристики трансфера : BT.709
Коэффициенты матрицы : BT.709
Аудио #1
Идентификатор : 2
Формат : AC-3
Формат/Информация : Audio Coding 3
Коммерческое название : Dolby Digital
Идентификатор кодека : A_AC3
Продолжительность : 47 м. 32 с.
Вид битрейта : Постоянный
Битрейт : 640 Кбит/сек
Каналы : 6 каналов
Channel layout : L R C LFE Ls Rs
Частота : 48,0 КГц
Частота кадров : 31,250 кадров/сек (1536 SPF)
Битовая глубина : 16 бит
Метод сжатия : С потерями
Размер потока : 218 Мбайт (1%)
Заголовок : Dub
Язык : Russian
ServiceKind/String : Complete Main
Default : Да
Forced : Нет
Аудио #2
Идентификатор : 3
Формат : DTS XLL
Формат/Информация : Digital Theater Systems
Коммерческое название : DTS-HD Master Audio
Идентификатор кодека : A_DTS
Продолжительность : 47 м. 32 с.
Вид битрейта : Переменный
Битрейт : 3669 Кбит/сек
Каналы : 6 каналов
Channel layout : C L R Ls Rs LFE
Частота : 48,0 КГц
Частота кадров : 93,750 кадра/сек (512 SPF)
Битовая глубина : 24 бит
Метод сжатия : Без потерь
Размер потока : 1,22 Гбайт (7%)
Заголовок : Jaskier
Язык : Russian
Default : Нет
Forced : Нет
Аудио #3
Идентификатор : 4
Формат : DTS XLL
Формат/Информация : Digital Theater Systems
Коммерческое название : DTS-HD Master Audio
Идентификатор кодека : A_DTS
Продолжительность : 47 м. 32 с.
Вид битрейта : Переменный
Битрейт : 3682 Кбит/сек
Каналы : 6 каналов
Channel layout : C L R Ls Rs LFE
Частота : 48,0 КГц
Частота кадров : 93,750 кадра/сек (512 SPF)
Битовая глубина : 24 бит
Метод сжатия : Без потерь
Размер потока : 1,22 Гбайт (7%)
Заголовок : LostFilm
Язык : Russian
Default : Нет
Forced : Нет
Аудио #4
Идентификатор : 5
Формат : DTS XLL
Формат/Информация : Digital Theater Systems
Коммерческое название : DTS-HD Master Audio
Идентификатор кодека : A_DTS
Продолжительность : 47 м. 32 с.
Вид битрейта : Переменный
Битрейт : 3582 Кбит/сек
Каналы : 6 каналов
Channel layout : C L R Ls Rs LFE
Частота : 48,0 КГц
Частота кадров : 93,750 кадра/сек (512 SPF)
Битовая глубина : 24 бит
Метод сжатия : Без потерь
Размер потока : 1,19 Гбайт (7%)
Заголовок : DTS-HD MA
Язык : English
Default : Нет
Forced : Нет
Аудио #5
Идентификатор : 6
Формат : AC-3
Формат/Информация : Audio Coding 3
Коммерческое название : Dolby Digital
Идентификатор кодека : A_AC3
Продолжительность : 47 м. 32 с.
Вид битрейта : Постоянный
Битрейт : 640 Кбит/сек
Каналы : 6 каналов
Channel layout : L R C LFE Ls Rs
Частота : 48,0 КГц
Частота кадров : 31,250 кадров/сек (1536 SPF)
Битовая глубина : 16 бит
Метод сжатия : С потерями
Размер потока : 218 Мбайт (1%)
Заголовок : Dolby Digital 5.1 / 640 kbps
Язык : English
ServiceKind/String : Complete Main
Default : Нет
Forced : Нет
Текст #1
Идентификатор : 7
Формат : UTF-8
Идентификатор кодека : S_TEXT/UTF8
Идентификатор кодека/Информация : UTF-8 Plain Text
Продолжительность : 17 м. 0 с.
Битрейт : 5 бит/сек
ElementCount : 10
Размер потока : 662 байт (0%)
Заголовок : Forced
Язык : Russian
Default : Да
Forced : Да
Текст #2
Идентификатор : 8
Формат : UTF-8
Идентификатор кодека : S_TEXT/UTF8
Идентификатор кодека/Информация : UTF-8 Plain Text
Продолжительность : 46 м. 11 с.
Битрейт : 89 бит/сек
ElementCount : 639
Размер потока : 30,2 Кбайт (0%)
Язык : Russian
Default : Нет
Forced : Нет
Текст #3
Идентификатор : 9
Формат : PGS
Идентификатор кодека : S_HDMV/PGS
Идентификатор кодека/Информация : Picture based subtitle format used on BDs/HD-DVDs
Продолжительность : 46 м. 12 с.
Битрейт : 46,5 Кбит/сек
ElementCount : 1538
Размер потока : 15,4 Мбайт (0%)
Заголовок : SDH
Язык : English
Default : Нет
Forced : Нет
Меню
00:00:00.000 : en:00:00:00.000
00:10:01.601 : en:00:10:01.601
00:20:02.201 : en:00:20:02.201
00:30:02.801 : en:00:30:02.801
00:40:03.401 : en:00:40:03.401

Скриншоты



[Профиль]  [ЛС] 
Показать сообщения:    
Ответить на тему

Текущее время: 24-Фев 03:18

Часовой пояс: UTC + 3



Вы не можете начинать темы
Вы не можете отвечать на сообщения
Вы не можете редактировать свои сообщения
Вы не можете удалять свои сообщения
Вы не можете голосовать в опросах
Вы не можете прикреплять файлы к сообщениям
Вы не можете скачивать файлы