Древние пришельцы / Ancient Aliens / Сезон: 13 / Серии: 1-13 из 13 (Кевин Бёрнс / Kevin Burns) [2018, Документальный, научно-популярный, SATRemux-AVC] History

Ответить на тему
 
Автор Сообщение

Wilmots ®

Стаж: 7 месяца

Сообщений: 84

Создавать темы 05-Сен-2018 14:33

[Цитировать] 



СЕЗОН 13

- Год выпуска: 2018
Выпущено: США, Prometheus Entertainment, A&E Television Networks, LLC.
Режиссер: Кевин Бёрнс / Kevin Burns
Жанр: Документальный, научно-популярный
Продолжительность: ~01:21:00
Перевод: Профессиональный (многоголосый закадровый) | History
Описание: Возможно ли, что разумные формы жизни посетили Землю тысячи лет назад, принеся с собой технологии кардинально повлиявшие на ход истории и развития человечества? Теория "древних пришельцев", опубликованная в 1968 году в бестселлере Эриха фон Дэникена "Колесницы богов", пошатнула представления людей об общеизвестном прогрессе человечества. Древние пещерные рисунки странных существ, остатки взлётно-посадочных полос в Перу, индийские тексты, описывающие "летающие машины богов"... вот лишь некоторые необычные археологические артефакты на которые ссылается Дэникен в качестве доказательств того, что "древние астронавты" были хорошо известны нашим предкам... В сериале рассказывается о разнообразных свидетельствах, что Землю посещали инопланетяне. Эта история охватывает 75 миллионов лет: от эры динозавров и Древнего Египта до странных небесных явлений в наши дни.- -
Сэмпл
Ссылка на предыдущие и альтернативные раздачи
-Качество: SATRemux-AVC
Формат: MKV
Видео: AVC, 720x576@1024x576 (16:9), 25 fps, ~1790 kbps
Аудио №1: MP2 2.0, 48 kHz, 192 kbps
Аудио №2: MP2 2.0, 48 kHz, 192 kbps

✘ Релиз ✘

Запись: Wilmots

Список выпусков/серий

01. НЛО - Теория заговора / The UFO Conspiracy
В 2017 стало известно, что правительство США тратит миллионы долларов на исследование сообщений об НЛО. Возможно, заговор НЛО действительно существует, и от нас скрывают правду о пришельцах?
02. Запретные коды Да Винчи / Da Vinci's Forbidden Codes
Существует теория, что в работах Леонардо да Винчи - а также в других старинных произведениях искусства скрываются зашифрованные сообщения, которые могут рассказывать о пришельцах из космоса.
03. Протоколы пришельцев / The Alien Protocols
В 2017 в Солнечную систему вошел космический объект, движущийся по необычной траектории. Астрономы предполагают, что это корабль пришельцев. И возникает вопрос: готовы ли мы к контакту с инопланетным разумом?
04. Чёрные дыры на Земле / Earth's Black Holes
Возможно, чёрные дыры существуют не только в космосе, но и на Земле? Если да, то не они ли виновны в таинственных исчезновениях и других необъяснимых явлениях, произошедших за много веков?
05. Шифр в пустыне / The Desert Codes
Возможно, древние гигантские рисунки, выбитые на поверхности каменистой пустыни, это шифр инопланетных пришельцев?
06. Зона-52 / Area 52
Возможно, знаменитая Зона-52 это просто прикрытие для еще более загадочных, секретных экспериментов, связанных с инопланетянами?
07. Наземная станция Египет / Earth Station Egypt
Теоретик Джорджио Цукалос исследует последние находки в самых древних местах, они говорят о посещении Египта внеземной цивилизацией давным-давно в прошлом.
08. Остров гигантов / Island of the Giants
Могут ли древние руины Сардинии рассказать о внеземном прошлом? Марти Лагина и Джорджио Цукалос изучают причудливые статуи, таинственные пирамиды и гигантские строения, оставленные одной из самых таинственных культур в древнем мире.
09. Похищенные / The Taken
Миллионы людей по всему миру заявляют о том, что были похищены пришельцами. Это какой-то случай уникальной массовой галлюцинации или же это действительно происходило на самом деле?
10. Стражи / The Sentinels
Семь каменных гигантов охраняют остров Тихого океана. Но что они защищают и от кого? Приверженцы теории о древних астронавтах Джорджио Цукалос и Дэвид Чайлдресс исследуют странные фигуры и запретные места Полинезии.
11. Россия без грифа секретности / Russia Declassified
Секретный союз был скрыт на виду. Совместные космические миссии с неизвестной целью. США и Россия с самого начала космической гонки работали вместе, готовясь к финальному внеземному столкновению?
12. Они пришли с небес / They Came from the Sky
13. Искусственный человек / The Artificial Human
Являются ли умные роботы угрозой для человечества - или следующим шагом в эволюции человека? Когда человек и машина начинают сливаться, мы выполняем судьбу, подготовленную для нас инопланетянами тысячи лет назад?

MediaInfo

General
Unique ID : 176234582137894135480364433975665381983 (0x84958BBFF1DA23FC5D13AA19477E525F)
Complete name : G:\Ancient Aliens (Season 13) 2018 SATRemux-AVC\07 - Наземная станция Египет (Earth Station Egypt).mkv
Format : Matroska
Format version : Version 4 / Version 2
File size : 1.25 GiB
Duration : 1 h 21 min
Overall bit rate : 2 177 kb/s
Encoded date : UTC 2018-12-13 11:01:28
Writing application : mkvmerge v29.0.0 ('Like It Or Not') 64-bit
Writing library : libebml v1.3.6 + libmatroska v1.4.9
Video
ID : 1
Format : AVC
Format/Info : Advanced Video Codec
Format profile : High@L3
Format settings : CABAC / 4 Ref Frames
Format settings, CABAC : Yes
Format settings, ReFrames : 4 frames
Codec ID : V_MPEG4/ISO/AVC
Duration : 1 h 21 min
Bit rate : 1 790 kb/s
Width : 720 pixels
Height : 576 pixels
Display aspect ratio : 16:9
Original display aspect ratio : 16:9
Frame rate mode : Constant
Frame rate : 25.000 FPS
Standard : Component
Color space : YUV
Chroma subsampling : 4:2:0
Bit depth : 8 bits
Scan type : Interlaced
Scan type, store method : Separated fields
Scan order : Top Field First
Bits/(Pixel*Frame) : 0.173
Stream size : 1.03 GiB (82%)
Default : No
Forced : No
Color range : Limited
Color primaries : BT.601 PAL
Transfer characteristics : BT.470 System B/G
Matrix coefficients : BT.470 System B/G
Audio #1
ID : 2
Format : MPEG Audio
Format version : Version 1
Format profile : Layer 2
Codec ID : A_MPEG/L2
Codec ID/Hint : MP2
Duration : 1 h 21 min
Bit rate mode : Constant
Bit rate : 192 kb/s
Channel(s) : 2 channels
Sampling rate : 48.0 kHz
Frame rate : 41.667 FPS (1152 SPF)
Compression mode : Lossy
Stream size : 113 MiB (9%)
Language : Russian
Default : Yes
Forced : No
Audio #2
ID : 3
Format : MPEG Audio
Format version : Version 1
Format profile : Layer 2
Codec ID : A_MPEG/L2
Codec ID/Hint : MP2
Duration : 1 h 21 min
Bit rate mode : Constant
Bit rate : 192 kb/s
Channel(s) : 2 channels
Sampling rate : 48.0 kHz
Frame rate : 41.667 FPS (1152 SPF)
Compression mode : Lossy
Stream size : 113 MiB (9%)
Language : English
Default : No
Forced : No
Menu
00:00:00.000 : :Chapter 1
00:08:10.000 : :Chapter 2
00:27:41.000 : :Chapter 3
00:35:42.000 : :Chapter 4
00:46:37.000 : :Chapter 5
01:00:53.000 : :Chapter 6
01:09:54.000 : :Chapter 7

Скриншоты



Последний раз редактировалось: Wilmots (2018-12-19 13:32), всего редактировалось 1 раз
[Профиль]  [ЛС] 

Wilmots ®

Стаж: 7 месяца

Сообщений: 84

Создавать темы 28-Ноя-2018 13:33 (спустя 2 месяца 22 дня)

[Цитировать] 

+11. Россия без грифа секретности / Russia Declassified
[Профиль]  [ЛС] 

Wilmots ®

Стаж: 7 месяца

Сообщений: 84

Создавать темы 19-Дек-2018 13:32 (спустя 20 дня)

[Цитировать] 

+13. ПОЛНЫЙ СЕЗОН.
[Профиль]  [ЛС] 
Показать сообщения:    
Ответить на тему

Текущее время: 24-Фев 03:18

Часовой пояс: UTC + 3



Вы не можете начинать темы
Вы не можете отвечать на сообщения
Вы не можете редактировать свои сообщения
Вы не можете удалять свои сообщения
Вы не можете голосовать в опросах
Вы не можете прикреплять файлы к сообщениям
Вы не можете скачивать файлы